(Grindcore, Industrial, Death) [CD] VA - Earache Presents — Earplugged - 1994, FLAC (image+.cue), lossless

Ответить на тему
Статистика раздачи [Обновить пиров]
Размер:  456 MB   |    Зарегистрирован:  8 месяцев 24 дня   |    Скачан:  0 раз

Полного источника не было: Никогда

 
   
 
 
 
Автор Сообщение

torrentc.info

Создавать темы 29-Авг-2017 19:32

[Цитировать]

Earache Presents — Earplugged- Жанр: Grindcore, Industrial, Death
Носитель: CD
Страна-производитель диска (релиза): UK
Год издания: 1994
Издатель (лейбл): Earache
Номер по каталогу: Mosh115CD
Аудиокодек: FLAC (*.flac)
Тип рипа: image+.cue
Битрейт аудио: lossless
Продолжительность: 56:27
Источник (релизер): Original CD
Наличие сканов в содержимом раздачи: да-Треклист:
01. Entombed - Out Of Hand (03:08)
02. Cathedral - Midnight Mountain (04:56)
03. Napalm Death - Plague Rages (03:50)
04. Godflesh - Xnoybis (05:55)
05. Bolt Thrower - ...For Victory (04:48)
06. Carcass - Embodiment (05:37)
07. Brutal Truth - Choice Of A New Generation (01:59)
08. Cathedral - Ride (04:49)
09. Napalm Death - State Of Mind (03:31)
10. Entombed - Wolverine Blues (02:11)
11. Godflesh - Anything Is Mine (04:01)
12. Bolt Thrower - When Glory Beckons (03:59)
13. Brutal Truth - Displacement (04:16)
14. Carcass - No Love Lost (03:22)

Лог создания рипа

Exact Audio Copy V1.3 from 2. September 2016
EAC extraction logfile from 26. August 2017, 15:53
Various / Earplugged
Used drive : ATAPI iHBS112 2 Adapter: 1 ID: 0
Read mode : SecureUtilize accurate stream : YesDefeat audio cache : YesMake use of C2 pointers : No
Read offset correction : 6Overread into Lead-In and Lead-Out : NoFill up missing offset samples with silence : YesDelete leading and trailing silent blocks : NoNull samples used in CRC calculations : YesUsed interface : Native Win32 interface for Win NT & 2000
Used output format : Internal WAV RoutinesSample format : 44.100 Hz; 16 Bit; Stereo
TOC of the extracted CD
Track | Start | Length | Start sector | End sector --------------------------------------------------------- 1 | 0:00.32 | 3:08.25 | 32 | 14156 2 | 3:08.57 | 4:56.00 | 14157 | 36356 3 | 8:04.57 | 3:50.50 | 36357 | 53656 4 | 11:55.32 | 5:55.25 | 53657 | 80306 5 | 17:50.57 | 4:48.50 | 80307 | 101956 6 | 22:39.32 | 5:37.25 | 101957 | 127256 7 | 28:16.57 | 1:59.00 | 127257 | 136181 8 | 30:15.57 | 4:49.25 | 136182 | 157881 9 | 35:05.07 | 3:31.00 | 157882 | 173706 10 | 38:36.07 | 2:11.50 | 173707 | 183581 11 | 40:47.57 | 4:01.25 | 183582 | 201681 12 | 44:49.07 | 3:59.50 | 201682 | 219656 13 | 48:48.57 | 4:16.50 | 219657 | 238906 14 | 53:05.32 | 3:22.50 | 238907 | 254106
Range status and errors
Selected range
Filename C:\lossless\zhen01\Earplugged.wav
Peak level 100.0 % Extraction speed 8.4 X Range quality 100.0 % Test CRC 460B0119 Copy CRC 460B0119 Copy OK
No errors occurred
AccurateRip summary
Track 1 accurately ripped (confidence 11) [7A105EE1] (AR v2)Track 2 accurately ripped (confidence 12) [DCB89FF1] (AR v2)Track 3 accurately ripped (confidence 12) [69B2A480] (AR v2)Track 4 accurately ripped (confidence 12) [D4B37E23] (AR v2)Track 5 accurately ripped (confidence 12) [07060061] (AR v2)Track 6 accurately ripped (confidence 12) [E0BF89F9] (AR v2)Track 7 accurately ripped (confidence 12) [D81E19A0] (AR v2)Track 8 accurately ripped (confidence 12) [0FA8AFCB] (AR v2)Track 9 accurately ripped (confidence 12) [23431642] (AR v2)Track 10 accurately ripped (confidence 12) [DF141572] (AR v2)Track 11 accurately ripped (confidence 12) [3C96F73C] (AR v2)Track 12 accurately ripped (confidence 12) [EF7EC42F] (AR v2)Track 13 accurately ripped (confidence 12) [E9CA22ED] (AR v2)Track 14 accurately ripped (confidence 12) [ADE959CE] (AR v2)
All tracks accurately ripped
End of status report
---- CUETools DB Plugin V2.1.6
[CTDB TOCID: N85dvCq8_PMfJoXcvLycO7Gk6Po-] foundSubmit result: N85dvCq8_PMfJoXcvLycO7Gk6Po- has been confirmedTrack | CTDB Status 1 | (22/22) Accurately ripped 2 | (22/22) Accurately ripped 3 | (22/22) Accurately ripped 4 | (22/22) Accurately ripped 5 | (22/22) Accurately ripped 6 | (22/22) Accurately ripped 7 | (22/22) Accurately ripped 8 | (22/22) Accurately ripped 9 | (22/22) Accurately ripped 10 | (22/22) Accurately ripped 11 | (21/22) Accurately ripped 12 | (21/22) Accurately ripped 13 | (21/22) Accurately ripped 14 | (21/22) Accurately ripped
==== Log checksum EDB4E0A82BC9DD6B314D49C57A556BEF12257D0C1C2AD2C68A8891866E802A26 ====


[torrentc.info]_t_5445382.torrent
Торрент: Зарегистрирован ·  [ 2017-08-29 19:18 ] ·  9f5a33b510a9aa8605b029d5c9a0a64f0076fa89

19 KB

Статус: проверено
Скачан: 0 раз
Размер: 456 MB
Оценка: 
(Голосов: 0)
Сказали спасибо: 0  Спасибо
Похожие темы
[Профиль]    [ЛС]
Показать сообщения:    
Ответить на тему

Текущее время: Сегодня 21:05

Часовой пояс: GMT + 7



Вы не можете начинать темы
Вы не можете отвечать на сообщения
Вы не можете редактировать свои сообщения
Вы не можете удалять свои сообщения
Вы не можете голосовать в опросах
Вы не можете прикреплять файлы к сообщениям
Вы можете скачивать файлы