(Rock, Hard Rock, Hard& Heavy, Heavy Metal, NWOBHM) [CD] VA - The Many Faces Of Judas Priest - 2017, FLAC (tracks+.cue), lossless

Ответить на тему
Статистика раздачи [Обновить пиров]
Размер:  1.19 GB   |    Зарегистрирован:  8 месяцев 23 дня   |    Скачан:  0 раз

Полного источника не было: Никогда

Личеров:  1  [  0 KB/s  ]   Подробная статистика скачивающих
 
   
 
 
 
Автор Сообщение

torrentc.info

Создавать темы 29-Авг-2017 19:32

[Цитировать]

The Many Faces Of Judas Priest
Жанр: Rock, Hard Rock, Hard& Heavy, Heavy Metal, NWOBHM
Носитель: CD
Страна-производитель диска (релиза): Mexico
Год издания: 2017
Издатель (лейбл): Music Brokers
Номер по каталогу: 7048798
Аудиокодек: FLAC (*.flac)
Тип рипа: tracks+.cue
Битрейт аудио: lossless
Продолжительность: 02:51:46
Источник (релизер): : BozMozzis
Наличие сканов в содержимом раздачи: Front, Back

CD 1 The Many Faces Of Judas Priest 01:02:42

01. Winter - Al Atkins (Original Singer Of "The Priest")
02. Deceiver - Violent Storm Feat. Kk Downing
03. Coming Down - Sundance Feat. Alan Moore
04. Victimas Del Rock - Tigres (Produced By Dave Holland)
05. 1066 (Es El Nombre Del Tema, 1066) - Hannibal (Produced By Rodger Bain)
06. Annie New Orleans - Elf (Produced By Roger Glover)
07. Getting Near To You - Glenn Hughes Feat. Dave Holland
08. War No More - Violent Storm Feat. Kk Downing
09. Never Satisfied - Al Atkins (Original Singer Of "The Priest")
10. A Tiempo - Tigres (Produced By Dave Holland)
11. Look Upon Me - Hannibal (Produced By Rodger Bain)
12. It's About Time - Glenn Hughes Feat Dave Holland
13. Living In A Backstreet - Spencer Davis Group (Produced By Roger Glover)
14. Crazy Song - Sundance Feat. Alan Moore

Лог создания рипа

Exact Audio Copy V1.3 from 2. September 2016
EAC extraction logfile from 26. August 2017, 7:16
Judas Priest / The Many Faces Of Judas Priest
Used drive : ATAPI DVD A DH16AAL Adapter: 1 ID: 0
Read mode : SecureUtilize accurate stream : YesDefeat audio cache : YesMake use of C2 pointers : No
Read offset correction : 6Overread into Lead-In and Lead-Out : NoFill up missing offset samples with silence : YesDelete leading and trailing silent blocks : NoNull samples used in CRC calculations : YesUsed interface : Native Win32 interface for Win NT & 2000Gap handling : Appended to previous track
Used output format : User Defined EncoderSelected bitrate : 1024 kBit/sQuality : HighAdd ID3 tag : NoCommand line compressor : C:\Program Files (x86)\Exact Audio Copy\Flac\flac.exeAdditional command line options : -8 -e -p -V -T "ARTIST=%artist%" -T "TITLE=%title%" -T "ALBUM=%albumtitle%" -T "DATE=%year%" -T "TRACKNUMBER=%tracknr%" -T "GENRE=%genre%" -T "PERFORMER=%albuminterpret%" -T "COMPOSER=%composer%" %haslyrics%--tag-from-file=LYRICS="%lyricsfile%"%haslyrics% -T "ALBUMARTIST=%albumartist%" -T "DISCNUMBER=%cdnumber%" -T "TOTALDISCS=%totalcds%" -T "TOTALTRACKS=%numtracks%" -T "COMMENT=%comment%" %source% -o %dest%
TOC of the extracted CD
Track | Start | Length | Start sector | End sector --------------------------------------------------------- 1 | 0:00.00 | 4:45.38 | 0 | 21412 2 | 4:45.38 | 3:12.57 | 21413 | 35869 3 | 7:58.20 | 3:17.00 | 35870 | 50644 4 | 11:15.20 | 5:16.38 | 50645 | 74382 5 | 16:31.58 | 6:27.38 | 74383 | 103445 6 | 22:59.21 | 3:01.19 | 103446 | 117039 7 | 26:00.40 | 4:04.02 | 117040 | 135341 8 | 30:04.42 | 3:27.74 | 135342 | 150940 9 | 33:32.41 | 4:59.36 | 150941 | 173401 10 | 38:32.02 | 4:09.58 | 173402 | 192134 11 | 42:41.60 | 6:35.57 | 192135 | 221816 12 | 49:17.42 | 4:59.19 | 221817 | 244260 13 | 54:16.61 | 3:24.00 | 244261 | 259560 14 | 57:40.61 | 5:01.00 | 259561 | 282135
Track 1
Filename C:\Zelou\EAC Rips\Judas Priest - The Many Faces Of Judas Priest (2017) [FLAC] {MBB7246}\Disc 1\01 - Al Atkins - Winter.wav
Pre-gap length 0:00:02.00
Peak level 100.0 % Extraction speed 1.5 X Track quality 99.9 % Test CRC AB8D3BDE Copy CRC AB8D3BDE Track not present in AccurateRip database Copy OK
Track 2
Filename C:\Zelou\EAC Rips\Judas Priest - The Many Faces Of Judas Priest (2017) [FLAC] {MBB7246}\Disc 1\02 - Violent Storm feat. KK Downing - Deceiver.wav
Peak level 100.0 % Extraction speed 2.1 X Track quality 100.0 % Test CRC 1E12B74F Copy CRC 1E12B74F Track not present in AccurateRip database Copy OK
Track 3
Filename C:\Zelou\EAC Rips\Judas Priest - The Many Faces Of Judas Priest (2017) [FLAC] {MBB7246}\Disc 1\03 - Sundance feat. Alan Moore - Coming Down.wav
Peak level 100.0 % Extraction speed 2.2 X Track quality 100.0 % Test CRC 962ED72F Copy CRC 962ED72F Track not present in AccurateRip database Copy OK
Track 4
Filename C:\Zelou\EAC Rips\Judas Priest - The Many Faces Of Judas Priest (2017) [FLAC] {MBB7246}\Disc 1\04 - Tigres - Victimas Del Rock.wav
Peak level 100.0 % Extraction speed 2.5 X Track quality 100.0 % Test CRC 6875AC29 Copy CRC 6875AC29 Track not present in AccurateRip database Copy OK
Track 5
Filename C:\Zelou\EAC Rips\Judas Priest - The Many Faces Of Judas Priest (2017) [FLAC] {MBB7246}\Disc 1\05 - Hannibal - 1066.wav
Peak level 100.0 % Extraction speed 2.8 X Track quality 100.0 % Test CRC 7C5D15B8 Copy CRC 7C5D15B8 Track not present in AccurateRip database Copy OK
Track 6
Filename C:\Zelou\EAC Rips\Judas Priest - The Many Faces Of Judas Priest (2017) [FLAC] {MBB7246}\Disc 1\06 - Elf - Annie New Orleans.wav
Peak level 100.0 % Extraction speed 1.8 X Track quality 99.9 % Test CRC 02CFA11B Copy CRC 02CFA11B Track not present in AccurateRip database Copy OK
Track 7
Filename C:\Zelou\EAC Rips\Judas Priest - The Many Faces Of Judas Priest (2017) [FLAC] {MBB7246}\Disc 1\07 - Glenn Hughes feat. Dave Holland - Getting Near To You.wav
Peak level 100.0 % Extraction speed 2.2 X Track quality 99.9 % Test CRC E302CB5C Copy CRC E302CB5C Track not present in AccurateRip database Copy OK
Track 8
Filename C:\Zelou\EAC Rips\Judas Priest - The Many Faces Of Judas Priest (2017) [FLAC] {MBB7246}\Disc 1\08 - Violent Storm feat. KK Downing - War No More.wav
Peak level 100.0 % Extraction speed 3.0 X Track quality 100.0 % Test CRC D2AF71A6 Copy CRC D2AF71A6 Track not present in AccurateRip database Copy OK
Track 9
Filename C:\Zelou\EAC Rips\Judas Priest - The Many Faces Of Judas Priest (2017) [FLAC] {MBB7246}\Disc 1\09 - Al Atkins - Never Satisfied.wav
Peak level 100.0 % Extraction speed 3.3 X Track quality 100.0 % Test CRC 08DC0724 Copy CRC 08DC0724 Track not present in AccurateRip database Copy OK
Track 10
Filename C:\Zelou\EAC Rips\Judas Priest - The Many Faces Of Judas Priest (2017) [FLAC] {MBB7246}\Disc 1\10 - Tigres - A Tiempo.wav
Peak level 100.0 % Extraction speed 3.4 X Track quality 100.0 % Test CRC 52BF7D8F Copy CRC 52BF7D8F Track not present in AccurateRip database Copy OK
Track 11
Filename C:\Zelou\EAC Rips\Judas Priest - The Many Faces Of Judas Priest (2017) [FLAC] {MBB7246}\Disc 1\11 - Hannibal - Look Upon Me.wav
Peak level 100.0 % Extraction speed 3.0 X Track quality 99.9 % Test CRC EC37A4E1 Copy CRC EC37A4E1 Track not present in AccurateRip database Copy OK
Track 12
Filename C:\Zelou\EAC Rips\Judas Priest - The Many Faces Of Judas Priest (2017) [FLAC] {MBB7246}\Disc 1\12 - Glenn Hughes feat Dave Holland - It´s About Time.wav
Peak level 100.0 % Extraction speed 3.8 X Track quality 100.0 % Test CRC CA6FBC70 Copy CRC CA6FBC70 Track not present in AccurateRip database Copy OK
Track 13
Filename C:\Zelou\EAC Rips\Judas Priest - The Many Faces Of Judas Priest (2017) [FLAC] {MBB7246}\Disc 1\13 - Spencer Davis Group - Living In A Backstreet.wav
Peak level 100.0 % Extraction speed 3.7 X Track quality 100.0 % Test CRC E62860E8 Copy CRC E62860E8 Track not present in AccurateRip database Copy OK
Track 14
Filename C:\Zelou\EAC Rips\Judas Priest - The Many Faces Of Judas Priest (2017) [FLAC] {MBB7246}\Disc 1\14 - Sundance feat. Alan Moore - Crazy Song.wav
Peak level 100.0 % Extraction speed 4.0 X Track quality 100.0 % Test CRC 2AC1479B Copy CRC 2AC1479B Track not present in AccurateRip database Copy OK
None of the tracks are present in the AccurateRip database
No errors occurred
End of status report
---- CUETools DB Plugin V2.1.6
[CTDB TOCID: K7q0Yn4kSbAZZRQ9.vMFqdsMx1U-] disk not present in databaseSubmit result: K7q0Yn4kSbAZZRQ9.vMFqdsMx1U- has been uploaded
==== Log checksum 7E02479DED72486F0626338E4782E2F8BD6E249B4024A739967196CD9664564A ====

Содержание индексной карты (.CUE)

REM GENRE RockREM DATE 2017REM DISCID CD0EB10EREM COMMENT "ExactAudioCopy v1.3"PERFORMER "Judas Priest"TITLE "The Many Faces Of Judas Priest"REM COMPOSER ""FILE "Al Atkins - Winter.wav" WAVE TRACK 01 AUDIO TITLE "Winter" PERFORMER "Al Atkins" REM COMPOSER "" ISRC ARF411701297 INDEX 01 00:00:00FILE "Violent Storm feat. KK Downing - Deceiver.wav" WAVE TRACK 02 AUDIO TITLE "Deceiver" PERFORMER "Violent Storm feat. KK Downing" REM COMPOSER "" INDEX 01 00:00:00FILE "Sundance feat. Alan Moore - Coming Down.wav" WAVE TRACK 03 AUDIO TITLE "Coming Down" PERFORMER "Sundance feat. Alan Moore" REM COMPOSER "" ISRC ARF411701298 INDEX 01 00:00:00FILE "Tigres - Victimas Del Rock.wav" WAVE TRACK 04 AUDIO TITLE "Victimas Del Rock" PERFORMER "Tigres" REM COMPOSER "" ISRC ARF411701299 INDEX 01 00:00:00FILE "Hannibal - 1066.wav" WAVE TRACK 05 AUDIO TITLE "1066 " PERFORMER "Hannibal" REM COMPOSER "" ISRC ARF411701300 INDEX 01 00:00:00FILE "Elf - Annie New Orleans.wav" WAVE TRACK 06 AUDIO TITLE "Annie New Orleans" PERFORMER "Elf" REM COMPOSER "" ISRC TbBLJ1602958 INDEX 01 00:00:00FILE "Glenn Hughes feat. Dave Holland - Getting Near To You.wav" WAVE TRACK 07 AUDIO TITLE "Getting Near To You" PERFORMER "Glenn Hughes feat. Dave Holland" REM COMPOSER "" ISRC TbBLJ1603102 INDEX 01 00:00:00FILE "Violent Storm feat. KK Downing - War No More.wav" WAVE TRACK 08 AUDIO TITLE "War No More" PERFORMER "Violent Storm feat. KK Downing" REM COMPOSER "" INDEX 01 00:00:00FILE "Al Atkins - Never Satisfied.wav" WAVE TRACK 09 AUDIO TITLE "Never Satisfied" PERFORMER "Al Atkins" REM COMPOSER "" ISRC ARF411701301 INDEX 01 00:00:00FILE "Tigres - A Tiempo.wav" WAVE TRACK 10 AUDIO TITLE "A Tiempo" PERFORMER "Tigres" REM COMPOSER "" ISRC ARF411701302 INDEX 01 00:00:00FILE "11 - Hannibal - Look Upon Me.wav" WAVE TRACK 11 AUDIO TITLE "Look Upon Me" PERFORMER "Hannibal" REM COMPOSER "" ISRC ARF411701303 INDEX 01 00:00:00FILE "Glenn Hughes feat Dave Holland - Itґs About Time.wav" WAVE TRACK 12 AUDIO TITLE "Itґs About Time" PERFORMER "Glenn Hughes feat Dave Holland" REM COMPOSER "" ISRC TbBLJ1603094 INDEX 01 00:00:00FILE "Spencer Davis Group - Living In A Backstreet.wav" WAVE TRACK 13 AUDIO TITLE "Living In A Backstreet" PERFORMER "Spencer Davis Group" REM COMPOSER "" ISRC TbBLJ0400310 INDEX 01 00:00:00FILE "Sundance feat. Alan Moore - Crazy Song.wav" WAVE TRACK 14 AUDIO TITLE "Crazy Song" PERFORMER "Sundance feat. Alan Moore" REM COMPOSER "" ISRC ARF411701304 INDEX 01 00:00:00

DR Log

foobar2000 1.1.10 / Dynamic Range Meter 1.1.1log date: 2017-08-28 12:41:41
--------------------------------------------------------------------------------Analyzed: Al Atkins / The Many Faces Of Judas Priest (1-2) Elf / The Many Faces Of Judas Priest (3) Glenn Hughes feat Dave Holland / The Many Faces Of Judas Priest (4) Glenn Hughes feat. Dave Holland / The Many Faces Of Judas Priest (5) Hannibal / The Many Faces Of Judas Priest (6-7) Spencer Davis Group / The Many Faces Of Judas Priest (8) Sundance feat. Alan Moore / The Many Faces Of Judas Priest (9-10) Tigres / The Many Faces Of Judas Priest (11-12) Violent Storm feat. KK Downing / The Many Faces Of Judas Priest (13-14)--------------------------------------------------------------------------------
DR Peak RMS Duration Track--------------------------------------------------------------------------------DR7 0.00 dB -9.03 dB 4:46 ?-WinterDR6 0.00 dB -7.28 dB 4:59 ?-Never SatisfiedDR8 0.00 dB -9.24 dB 3:01 ?-Annie New OrleansDR7 0.00 dB -8.77 dB 4:59 ?-It´s About TimeDR8 0.00 dB -9.99 dB 4:04 ?-Getting Near To YouDR7 0.00 dB -9.83 dB 6:28 ?-1066DR7 0.00 dB -8.74 dB 6:36 ?-Look Upon MeDR7 0.00 dB -8.53 dB 3:24 ?-Living In A BackstreetDR8 0.00 dB -9.09 dB 3:17 ?-Coming DownDR8 0.00 dB -10.83 dB 5:01 ?-Crazy SongDR7 0.00 dB -8.05 dB 5:17 ?-Victimas Del RockDR7 0.00 dB -8.33 dB 4:10 ?-A TiempoDR7 0.00 dB -8.19 dB 3:13 ?-DeceiverDR7 0.00 dB -8.29 dB 3:28 ?-War No More--------------------------------------------------------------------------------
Number of tracks: 14Official DR value: DR7
Samplerate: 44100 HzChannels: 2Bits per sample: 16Bitrate: 992 kbpsCodec: FLAC================================================================================

CD 2 The Songs 01:03:44

01. Screaming For Vengeance - Iced Earth
02. Electric Eye - As I Lay Dying
03. Saints In Hell - Fates Warning
04. Hell Patrol - Angelus Apatrida
05. Night Crawler - Radakka
06. Breaking The Law - Unleashed
07. Rocka Rolla - Wolf
08. The Ripper - Iced Earth
09. Never Satisfied - Six Feet Under
10. Out In The Cold - Witherscape
11. Exciter - Strapping Young Lad
12. Love Bites - Nevermore
13. Night Crawler - Six Feet Under
14. Last Rose Of Summer - Whiterscape

Лог создания рипа

Exact Audio Copy V1.3 from 2. September 2016
EAC extraction logfile from 26. August 2017, 9:06
Judas Priest / The Many Faces Of Judas Priest
Used drive : ATAPI DVD A DH16AAL Adapter: 1 ID: 0
Read mode : SecureUtilize accurate stream : YesDefeat audio cache : YesMake use of C2 pointers : No
Read offset correction : 6Overread into Lead-In and Lead-Out : NoFill up missing offset samples with silence : YesDelete leading and trailing silent blocks : NoNull samples used in CRC calculations : YesUsed interface : Native Win32 interface for Win NT & 2000Gap handling : Appended to previous track
Used output format : User Defined EncoderSelected bitrate : 1024 kBit/sQuality : HighAdd ID3 tag : NoCommand line compressor : C:\Program Files (x86)\Exact Audio Copy\Flac\flac.exeAdditional command line options : -8 -e -p -V -T "ARTIST=%artist%" -T "TITLE=%title%" -T "ALBUM=%albumtitle%" -T "DATE=%year%" -T "TRACKNUMBER=%tracknr%" -T "GENRE=%genre%" -T "PERFORMER=%albuminterpret%" -T "COMPOSER=%composer%" %haslyrics%--tag-from-file=LYRICS="%lyricsfile%"%haslyrics% -T "ALBUMARTIST=%albumartist%" -T "DISCNUMBER=%cdnumber%" -T "TOTALDISCS=%totalcds%" -T "TOTALTRACKS=%numtracks%" -T "COMMENT=%comment%" %source% -o %dest%
TOC of the extracted CD
Track | Start | Length | Start sector | End sector --------------------------------------------------------- 1 | 0:00.00 | 4:37.57 | 0 | 20831 2 | 4:37.57 | 3:44.01 | 20832 | 37632 3 | 8:21.58 | 5:04.19 | 37633 | 60451 4 | 13:26.02 | 3:11.00 | 60452 | 74776 5 | 16:37.02 | 5:51.73 | 74777 | 101174 6 | 22:29.00 | 2:14.02 | 101175 | 111226 7 | 24:43.02 | 3:17.39 | 111227 | 126040 8 | 28:00.41 | 2:43.38 | 126041 | 138303 9 | 30:44.04 | 4:53.57 | 138304 | 160335 10 | 35:37.61 | 6:35.00 | 160336 | 189960 11 | 42:12.61 | 5:26.01 | 189961 | 214411 12 | 47:38.62 | 5:23.00 | 214412 | 238636 13 | 53:01.62 | 5:36.38 | 238637 | 263874 14 | 58:38.25 | 5:05.38 | 263875 | 286787
Track 1
Filename C:\Zelou\EAC Rips\Judas Priest - The Many Faces Of Judas Priest (2017) [FLAC] {MBB7246}\Disc 2\01 - Iced Earth - Screaming For Vengeance.wav
Pre-gap length 0:00:02.00
Peak level 100.0 % Extraction speed 2.0 X Track quality 100.0 % Test CRC DDE5BF2A Copy CRC DDE5BF2A Track not present in AccurateRip database Copy OK
Track 2
Filename C:\Zelou\EAC Rips\Judas Priest - The Many Faces Of Judas Priest (2017) [FLAC] {MBB7246}\Disc 2\02 - As I Lay Dying - Electric Eye.wav
Peak level 100.0 % Extraction speed 2.1 X Track quality 100.0 % Test CRC 0C34E503 Copy CRC 0C34E503 Track not present in AccurateRip database Copy OK
Track 3
Filename C:\Zelou\EAC Rips\Judas Priest - The Many Faces Of Judas Priest (2017) [FLAC] {MBB7246}\Disc 2\03 - Fates Warning - Saints In Hell.wav
Peak level 100.0 % Extraction speed 2.4 X Track quality 100.0 % Test CRC 4E7F9F6A Copy CRC 4E7F9F6A Track not present in AccurateRip database Copy OK
Track 4
Filename C:\Zelou\EAC Rips\Judas Priest - The Many Faces Of Judas Priest (2017) [FLAC] {MBB7246}\Disc 2\04 - Angelus Apatrida - Hell Patrol.wav
Peak level 100.0 % Extraction speed 2.4 X Track quality 100.0 % Test CRC 09ECCADD Copy CRC 09ECCADD Track not present in AccurateRip database Copy OK
Track 5
Filename C:\Zelou\EAC Rips\Judas Priest - The Many Faces Of Judas Priest (2017) [FLAC] {MBB7246}\Disc 2\05 - Radakka - Night Crawler.wav
Peak level 100.0 % Extraction speed 2.8 X Track quality 100.0 % Test CRC 56879ADA Copy CRC 56879ADA Track not present in AccurateRip database Copy OK
Track 6
Filename C:\Zelou\EAC Rips\Judas Priest - The Many Faces Of Judas Priest (2017) [FLAC] {MBB7246}\Disc 2\06 - Unleashed - Breaking The Law.wav
Peak level 96.8 % Extraction speed 2.5 X Track quality 100.0 % Test CRC 98CA2ED7 Copy CRC 98CA2ED7 Track not present in AccurateRip database Copy OK
Track 7
Filename C:\Zelou\EAC Rips\Judas Priest - The Many Faces Of Judas Priest (2017) [FLAC] {MBB7246}\Disc 2\07 - Wolf - Rocka Rolla.wav
Peak level 100.0 % Extraction speed 1.9 X Track quality 99.9 % Test CRC D8F4DD20 Copy CRC D8F4DD20 Track not present in AccurateRip database Copy OK
Track 8
Filename C:\Zelou\EAC Rips\Judas Priest - The Many Faces Of Judas Priest (2017) [FLAC] {MBB7246}\Disc 2\08 - Iced Earth - The Ripper.wav
Peak level 100.0 % Extraction speed 2.8 X Track quality 100.0 % Test CRC 1911369D Copy CRC 1911369D Track not present in AccurateRip database Copy OK
Track 9
Filename C:\Zelou\EAC Rips\Judas Priest - The Many Faces Of Judas Priest (2017) [FLAC] {MBB7246}\Disc 2\09 - Six Feet Under - Never Satisfied.wav
Peak level 100.0 % Extraction speed 3.2 X Track quality 100.0 % Test CRC 84C24551 Copy CRC 84C24551 Track not present in AccurateRip database Copy OK
Track 10
Filename C:\Zelou\EAC Rips\Judas Priest - The Many Faces Of Judas Priest (2017) [FLAC] {MBB7246}\Disc 2\10 - Witherscape - Out In The Cold.wav
Peak level 100.0 % Extraction speed 3.5 X Track quality 100.0 % Test CRC 66284FC2 Copy CRC 66284FC2 Track not present in AccurateRip database Copy OK
Track 11
Filename C:\Zelou\EAC Rips\Judas Priest - The Many Faces Of Judas Priest (2017) [FLAC] {MBB7246}\Disc 2\11 - Strapping Young Lad - Exciter.wav
Peak level 84.5 % Extraction speed 2.8 X Track quality 99.9 % Test CRC BA3F7B66 Copy CRC BA3F7B66 Track not present in AccurateRip database Copy OK
Track 12
Filename C:\Zelou\EAC Rips\Judas Priest - The Many Faces Of Judas Priest (2017) [FLAC] {MBB7246}\Disc 2\12 - Nevermore - Love Bites.wav
Peak level 100.0 % Extraction speed 2.9 X Track quality 99.9 % Test CRC 575AC9CA Copy CRC 575AC9CA Track not present in AccurateRip database Copy OK
Track 13
Filename C:\Zelou\EAC Rips\Judas Priest - The Many Faces Of Judas Priest (2017) [FLAC] {MBB7246}\Disc 2\13 - Six Feet Under - Night Crawler.wav
Peak level 100.0 % Extraction speed 3.9 X Track quality 100.0 % Test CRC A3CEC544 Copy CRC A3CEC544 Track not present in AccurateRip database Copy OK
Track 14
Filename C:\Zelou\EAC Rips\Judas Priest - The Many Faces Of Judas Priest (2017) [FLAC] {MBB7246}\Disc 2\14 - Whiterscape - Last Rose Of Summer.wav
Peak level 88.3 % Extraction speed 4.0 X Track quality 100.0 % Test CRC 84B9A5A2 Copy CRC 84B9A5A2 Track not present in AccurateRip database Copy OK
None of the tracks are present in the AccurateRip database
No errors occurred
End of status report
---- CUETools DB Plugin V2.1.6
[CTDB TOCID: QLH6o8ilYE2aRYCkF4Uq.WuPC4I-] foundSubmit result: QLH6o8ilYE2aRYCkF4Uq.WuPC4I- has been confirmedTrack | CTDB Status 1 | (1/1) Accurately ripped 2 | (1/1) Accurately ripped 3 | (1/1) Accurately ripped 4 | (1/1) Accurately ripped 5 | (1/1) Accurately ripped 6 | (1/1) Accurately ripped 7 | (1/1) Accurately ripped 8 | (1/1) Accurately ripped 9 | (1/1) Accurately ripped 10 | (1/1) Accurately ripped 11 | (1/1) Accurately ripped 12 | (1/1) Accurately ripped 13 | (1/1) Accurately ripped 14 | (1/1) Accurately ripped
==== Log checksum 1D0759641D6F8265B7E799F86FC995ACFA7026D78752E51DEAADDB00B119A0AB ====

Содержание индексной карты (.CUE)

REM GENRE RockREM DATE 2017REM DISCID CD0EEF0EREM COMMENT "ExactAudioCopy v1.3"PERFORMER "Judas Priest"TITLE "The Many Faces Of Judas Priest"REM COMPOSER ""FILE "Iced Earth - Screaming For Vengeance.wav" WAVE TRACK 01 AUDIO TITLE "Screaming For Vengeance" PERFORMER "Iced Earth" REM COMPOSER "" ISRC ARF411701305 INDEX 01 00:00:00FILE "As I Lay Dying - Electric Eye.wav" WAVE TRACK 02 AUDIO TITLE "Electric Eye" PERFORMER "As I Lay Dying" REM COMPOSER "" ISRC ARF411701306 INDEX 01 00:00:00FILE "Fates Warning - Saints In Hell.wav" WAVE TRACK 03 AUDIO TITLE "Saints In Hell" PERFORMER "Fates Warning" REM COMPOSER "" ISRC ARF411701307 INDEX 01 00:00:00FILE "Angelus Apatrida - Hell Patrol.wav" WAVE TRACK 04 AUDIO TITLE "Hell Patrol" PERFORMER "Angelus Apatrida" REM COMPOSER "" ISRC ARF411701308 INDEX 01 00:00:00FILE "Radakka - Night Crawler.wav" WAVE TRACK 05 AUDIO TITLE "Night Crawler" PERFORMER "Radakka" REM COMPOSER "" ISRC ARF411701309 INDEX 01 00:00:00FILE "Unleashed - Breaking The Law.wav" WAVE TRACK 06 AUDIO TITLE "Breaking The Law" PERFORMER "Unleashed" REM COMPOSER "" ISRC ARF411701310 INDEX 01 00:00:00FILE "Wolf - Rocka Rolla.wav" WAVE TRACK 07 AUDIO TITLE "Rocka Rolla" PERFORMER "Wolf" REM COMPOSER "" ISRC ARF411701311 INDEX 01 00:00:00FILE "Iced Earth - The Ripper.wav" WAVE TRACK 08 AUDIO TITLE "The Ripper" PERFORMER "Iced Earth" REM COMPOSER "" ISRC ARF411701312 INDEX 01 00:00:00FILE "Six Feet Under - Never Satisfied.wav" WAVE TRACK 09 AUDIO TITLE "Never Satisfied" PERFORMER "Six Feet Under" REM COMPOSER "" ISRC ARF411701313 INDEX 01 00:00:00FILE "Witherscape - Out In The Cold.wav" WAVE TRACK 10 AUDIO TITLE "Out In The Cold" PERFORMER "Witherscape" REM COMPOSER "" ISRC ARF411701314 INDEX 01 00:00:00FILE "Strapping Young Lad - Exciter.wav" WAVE TRACK 11 AUDIO TITLE "Exciter" PERFORMER "Strapping Young Lad" REM COMPOSER "" ISRC ARF411701315 INDEX 01 00:00:00FILE "Nevermore - Love Bites.wav" WAVE TRACK 12 AUDIO TITLE "Love Bites" PERFORMER "Nevermore" REM COMPOSER "" ISRC ARF411701316 INDEX 01 00:00:00FILE "Six Feet Under - Night Crawler.wav" WAVE TRACK 13 AUDIO TITLE "Night Crawler" PERFORMER "Six Feet Under" REM COMPOSER "" ISRC ARF411701317 INDEX 01 00:00:00FILE "Whiterscape - Last Rose Of Summer.wav" WAVE TRACK 14 AUDIO TITLE "Last Rose Of Summer" PERFORMER "Whiterscape" REM COMPOSER "" ISRC ARF411701318 INDEX 01 00:00:00

DR Log

foobar2000 1.1.10 / Dynamic Range Meter 1.1.1log date: 2017-08-28 12:44:01
--------------------------------------------------------------------------------Analyzed: Angelus Apatrida / The Many Faces Of Judas Priest (1) As I Lay Dying / The Many Faces Of Judas Priest (2) Fates Warning / The Many Faces Of Judas Priest (3) Iced Earth / The Many Faces Of Judas Priest (4-5) Nevermore / The Many Faces Of Judas Priest (6) Radakka / The Many Faces Of Judas Priest (7) Six Feet Under / The Many Faces Of Judas Priest (8-9) Strapping Young Lad / The Many Faces Of Judas Priest (10) Unleashed / The Many Faces Of Judas Priest (11) Whiterscape / The Many Faces Of Judas Priest (12) Witherscape / The Many Faces Of Judas Priest (13) Wolf / The Many Faces Of Judas Priest (14)--------------------------------------------------------------------------------
DR Peak RMS Duration Track--------------------------------------------------------------------------------DR6 0.00 dB -6.92 dB 3:11 ?-Hell PatrolDR7 0.00 dB -7.79 dB 3:44 ?-Electric EyeDR7 0.00 dB -7.87 dB 5:04 ?-Saints In HellDR6 0.00 dB -6.96 dB 4:38 ?-Screaming For VengeanceDR7 0.00 dB -8.56 dB 2:44 ?-The RipperDR5 0.00 dB -6.00 dB 5:23 ?-Love BitesDR7 0.00 dB -7.54 dB 5:52 ?-Night CrawlerDR5 0.00 dB -5.43 dB 4:54 ?-Never SatisfiedDR4 0.00 dB -6.31 dB 5:37 ?-Night CrawlerDR5 -1.46 dB -6.95 dB 5:26 ?-ExciterDR8 -0.28 dB -9.57 dB 2:14 ?-Breaking The LawDR7 -1.07 dB -9.99 dB 5:06 ?-Last Rose Of SummerDR6 0.00 dB -8.35 dB 6:35 ?-Out In The ColdDR7 0.00 dB -8.04 dB 3:18 ?-Rocka Rolla--------------------------------------------------------------------------------
Number of tracks: 14Official DR value: DR6
Samplerate: 44100 HzChannels: 2Bits per sample: 16Bitrate: 1003 kbpsCodec: FLAC================================================================================

CD 3 Defenders Of The British Metal 00:45:20

01. Shout It Out - Maineeaxe
02. Welcome To The Hell House - Holosade
03. Despiser - Gaskin
04. Emotion - Ace Lane
05. Nothing's Real - 21 Guns
06. Attack Attack - Heritage
07. Jay - Ace Lane
08. Madame Guillotine - Holosade
09. Run To The Angels - Maineeaxe
10. Sweet Dream Maker - Gaskin
11. Remorse Code - Heritage
12. No Soul - 21 Guns

Лог создания рипа

Exact Audio Copy V1.3 from 2. September 2016
EAC extraction logfile from 26. August 2017, 10:34
Judas Priest / The Many Faces Of Judas Priest
Used drive : ATAPI DVD A DH16AAL Adapter: 1 ID: 0
Read mode : SecureUtilize accurate stream : YesDefeat audio cache : YesMake use of C2 pointers : No
Read offset correction : 6Overread into Lead-In and Lead-Out : NoFill up missing offset samples with silence : YesDelete leading and trailing silent blocks : NoNull samples used in CRC calculations : YesUsed interface : Native Win32 interface for Win NT & 2000Gap handling : Appended to previous track
Used output format : User Defined EncoderSelected bitrate : 1024 kBit/sQuality : HighAdd ID3 tag : NoCommand line compressor : C:\Program Files (x86)\Exact Audio Copy\Flac\flac.exeAdditional command line options : -8 -e -p -V -T "ARTIST=%artist%" -T "TITLE=%title%" -T "ALBUM=%albumtitle%" -T "DATE=%year%" -T "TRACKNUMBER=%tracknr%" -T "GENRE=%genre%" -T "PERFORMER=%albuminterpret%" -T "COMPOSER=%composer%" %haslyrics%--tag-from-file=LYRICS="%lyricsfile%"%haslyrics% -T "ALBUMARTIST=%albumartist%" -T "DISCNUMBER=%cdnumber%" -T "TOTALDISCS=%totalcds%" -T "TOTALTRACKS=%numtracks%" -T "COMMENT=%comment%" %source% -o %dest%
TOC of the extracted CD
Track | Start | Length | Start sector | End sector --------------------------------------------------------- 1 | 0:00.00 | 3:09.00 | 0 | 14174 2 | 3:09.00 | 3:53.57 | 14175 | 31706 3 | 7:02.57 | 5:30.00 | 31707 | 56456 4 | 12:32.57 | 2:55.57 | 56457 | 69638 5 | 15:28.39 | 3:38.00 | 69639 | 85988 6 | 19:06.39 | 4:15.38 | 85989 | 105151 7 | 23:22.02 | 3:57.38 | 105152 | 122964 8 | 27:19.40 | 5:04.57 | 122965 | 145821 9 | 32:24.22 | 2:34.57 | 145822 | 157428 10 | 34:59.04 | 3:52.29 | 157429 | 174857 11 | 38:51.33 | 3:05.66 | 174858 | 188798 12 | 41:57.24 | 3:22.57 | 188799 | 204005
Track 1
Filename C:\Zelou\EAC Rips\Judas Priest - The Many Faces Of Judas Priest (2017) [FLAC] {MBB7246}\Disc 3\01 - Maineeaxe - Shout It Out.wav
Pre-gap length 0:00:02.00
Peak level 100.0 % Extraction speed 1.8 X Track quality 100.0 % Test CRC 648B7850 Copy CRC 648B7850 Track not present in AccurateRip database Copy OK
Track 2
Filename C:\Zelou\EAC Rips\Judas Priest - The Many Faces Of Judas Priest (2017) [FLAC] {MBB7246}\Disc 3\02 - Holosade - Welcome To The Hell House.wav
Peak level 100.0 % Extraction speed 2.1 X Track quality 100.0 % Test CRC 936B9304 Copy CRC 936B9304 Track not present in AccurateRip database Copy OK
Track 3
Filename C:\Zelou\EAC Rips\Judas Priest - The Many Faces Of Judas Priest (2017) [FLAC] {MBB7246}\Disc 3\03 - Gaskin - Despiser.wav
Peak level 100.0 % Extraction speed 1.8 X Track quality 99.9 % Test CRC 63EE3097 Copy CRC 63EE3097 Track not present in AccurateRip database Copy OK
Track 4
Filename C:\Zelou\EAC Rips\Judas Priest - The Many Faces Of Judas Priest (2017) [FLAC] {MBB7246}\Disc 3\04 - Ace Lane - Emotion.wav
Peak level 100.0 % Extraction speed 2.3 X Track quality 100.0 % Test CRC 2C6B4427 Copy CRC 2C6B4427 Track not present in AccurateRip database Copy OK
Track 5
Filename C:\Zelou\EAC Rips\Judas Priest - The Many Faces Of Judas Priest (2017) [FLAC] {MBB7246}\Disc 3\05 - 21 Guns - Nothing´s Real.wav
Peak level 100.0 % Extraction speed 2.6 X Track quality 100.0 % Test CRC EC1966C8 Copy CRC EC1966C8 Track not present in AccurateRip database Copy OK
Track 6
Filename C:\Zelou\EAC Rips\Judas Priest - The Many Faces Of Judas Priest (2017) [FLAC] {MBB7246}\Disc 3\06 - Heritage - Attack Attack.wav
Peak level 100.0 % Extraction speed 2.8 X Track quality 100.0 % Test CRC 0CB4446B Copy CRC 0CB4446B Track not present in AccurateRip database Copy OK
Track 7
Filename C:\Zelou\EAC Rips\Judas Priest - The Many Faces Of Judas Priest (2017) [FLAC] {MBB7246}\Disc 3\07 - Ace Lane - Jay.wav
Peak level 100.0 % Extraction speed 2.9 X Track quality 100.0 % Test CRC 59A2FEB7 Copy CRC 59A2FEB7 Track not present in AccurateRip database Copy OK
Track 8
Filename C:\Zelou\EAC Rips\Judas Priest - The Many Faces Of Judas Priest (2017) [FLAC] {MBB7246}\Disc 3\08 - Holosade - Madame Guillotine.wav
Peak level 100.0 % Extraction speed 2.4 X Track quality 99.9 % Test CRC 7EA3D866 Copy CRC 7EA3D866 Track not present in AccurateRip database Copy OK
Track 9
Filename C:\Zelou\EAC Rips\Judas Priest - The Many Faces Of Judas Priest (2017) [FLAC] {MBB7246}\Disc 3\09 - Maineeaxe - Run To The Angels.wav
Peak level 100.0 % Extraction speed 2.9 X Track quality 100.0 % Test CRC 315C0D49 Copy CRC 315C0D49 Track not present in AccurateRip database Copy OK
Track 10
Filename C:\Zelou\EAC Rips\Judas Priest - The Many Faces Of Judas Priest (2017) [FLAC] {MBB7246}\Disc 3\10 - Gaskin - Sweet Dream Maker.wav
Peak level 100.0 % Extraction speed 2.3 X Track quality 99.9 % Test CRC B9B003DE Copy CRC B9B003DE Track not present in AccurateRip database Copy OK
Track 11
Filename C:\Zelou\EAC Rips\Judas Priest - The Many Faces Of Judas Priest (2017) [FLAC] {MBB7246}\Disc 3\11 - Heritage - Remorse Code.wav
Peak level 100.0 % Extraction speed 3.2 X Track quality 100.0 % Test CRC 40619486 Copy CRC 40619486 Track not present in AccurateRip database Copy OK
Track 12
Filename C:\Zelou\EAC Rips\Judas Priest - The Many Faces Of Judas Priest (2017) [FLAC] {MBB7246}\Disc 3\12 - 21 Guns - No Soul.wav
Peak level 100.0 % Extraction speed 3.4 X Track quality 100.0 % Test CRC 1FBD696D Copy CRC 1FBD696D Track not present in AccurateRip database Copy OK
None of the tracks are present in the AccurateRip database
No errors occurred
End of status report
---- CUETools DB Plugin V2.1.6
[CTDB TOCID: 5AWNnFLa.II8WFdJIxa2WqZLU4M-] disk not present in databaseSubmit result: Le délai d'attente de l'opération a expiré.
==== Log checksum 64C91201F6BC472204E7D672A1869C43606D18BF97DF0FE20811DF5907E4FD17 ====

Содержание индексной карты (.CUE)

REM GENRE RockREM DATE 2017REM DISCID 8A0AA00CREM COMMENT "ExactAudioCopy v1.3"PERFORMER "Judas Priest"TITLE "The Many Faces Of Judas Priest"REM COMPOSER ""FILE "Maineeaxe - Shout It Out.wav" WAVE TRACK 01 AUDIO TITLE "Shout It Out" PERFORMER "Maineeaxe" REM COMPOSER "" ISRC TbBLJ1005578 INDEX 01 00:00:00FILE "Holosade - Welcome To The Hell House.wav" WAVE TRACK 02 AUDIO TITLE "Welcome To The Hell House" PERFORMER "Holosade" REM COMPOSER "" ISRC TbBLJ1003842 INDEX 01 00:00:00FILE "Gaskin - Despiser.wav" WAVE TRACK 03 AUDIO TITLE "Despiser" PERFORMER "Gaskin" REM COMPOSER "" ISRC TbBLJ8200424 INDEX 01 00:00:00FILE "Ace Lane - Emotion.wav" WAVE TRACK 04 AUDIO TITLE "Emotion" PERFORMER "Ace Lane" REM COMPOSER "" ISRC TbBLJ1704670 INDEX 01 00:00:00FILE "21 Guns - Nothingґs Real.wav" WAVE TRACK 05 AUDIO TITLE "Nothingґs Real" PERFORMER "21 Guns" REM COMPOSER "" ISRC ARF411701319 INDEX 01 00:00:00FILE "Heritage - Attack Attack.wav" WAVE TRACK 06 AUDIO TITLE "Attack Attack" PERFORMER "Heritage" REM COMPOSER "" ISRC TbBLJ8200413 INDEX 01 00:00:00FILE "Ace Lane - Jay.wav" WAVE TRACK 07 AUDIO TITLE "Jay" PERFORMER "Ace Lane" REM COMPOSER "" ISRC TbBLJ1704670 INDEX 01 00:00:00FILE "Holosade - Madame Guillotine.wav" WAVE TRACK 08 AUDIO TITLE "Madame Guillotine" PERFORMER "Holosade" REM COMPOSER "" ISRC TbBLJ1003844 INDEX 01 00:00:00FILE "Maineeaxe - Run To The Angels.wav" WAVE TRACK 09 AUDIO TITLE "Run To The Angels" PERFORMER "Maineeaxe" REM COMPOSER "" ISRC TbBLJ1005573 INDEX 01 00:00:00FILE "Gaskin - Sweet Dream Maker.wav" WAVE TRACK 10 AUDIO TITLE "Sweet Dream Maker" PERFORMER "Gaskin" REM COMPOSER "" ISRC TbBLJ8200422 INDEX 01 00:00:00FILE "Heritage - Remorse Code.wav" WAVE TRACK 11 AUDIO TITLE "Remorse Code" PERFORMER "Heritage" REM COMPOSER "" ISRC TbBLJ8200412 INDEX 01 00:00:00FILE "21 Guns - No Soul.wav" WAVE TRACK 12 AUDIO TITLE "No Soul" PERFORMER "21 Guns" REM COMPOSER "" ISRC ARF411701320 INDEX 01 00:00:00

DR Log

foobar2000 1.1.10 / Dynamic Range Meter 1.1.1log date: 2017-08-28 12:53:51
--------------------------------------------------------------------------------Analyzed: 21 Guns / The Many Faces Of Judas Priest (1-2) Ace Lane / The Many Faces Of Judas Priest (3-4) Gaskin / The Many Faces Of Judas Priest (5-6) Heritage / The Many Faces Of Judas Priest (7-8) Holosade / The Many Faces Of Judas Priest (9-10) Maineeaxe / The Many Faces Of Judas Priest (11-12)--------------------------------------------------------------------------------
DR Peak RMS Duration Track--------------------------------------------------------------------------------DR7 0.00 dB -7.97 dB 3:38 ?-Nothing´s RealDR7 0.00 dB -8.58 dB 3:23 ?-No SoulDR7 0.00 dB -8.96 dB 2:56 ?-EmotionDR7 0.00 dB -8.44 dB 3:58 ?-JayDR5 0.00 dB -6.55 dB 5:30 ?-DespiserDR6 0.00 dB -7.77 dB 3:52 ?-Sweet Dream MakerDR8 0.00 dB -9.17 dB 4:16 ?-Attack AttackDR8 0.00 dB -9.05 dB 3:06 ?-Remorse CodeDR7 0.00 dB -7.83 dB 3:54 ?-Welcome To The Hell HouseDR7 0.00 dB -7.80 dB 5:05 ?-Madame GuillotineDR6 0.00 dB -7.13 dB 3:09 ?-Shout It OutDR7 0.00 dB -7.79 dB 2:35 ?-Run To The Angels--------------------------------------------------------------------------------
Number of tracks: 12Official DR value: DR7
Samplerate: 44100 HzChannels: 2Bits per sample: 16Bitrate: 1036 kbpsCodec: FLAC================================================================================


[torrentc.info]_t_5446178.torrent
Торрент: Зарегистрирован ·  [ 2017-08-29 19:18 ] ·  ddae190a91f33247c7ef93ce10d4f0aa3bc149b0

16 KB

Статус: проверено
Скачан: 0 раз
Размер: 1.19 GB
Оценка: 
(Голосов: 0)
Сказали спасибо: 0  Спасибо
Похожие темы
[Профиль]    [ЛС]
Показать сообщения:    
Ответить на тему

Текущее время: Сегодня 13:28

Часовой пояс: GMT + 7



Вы не можете начинать темы
Вы не можете отвечать на сообщения
Вы не можете редактировать свои сообщения
Вы не можете удалять свои сообщения
Вы не можете голосовать в опросах
Вы не можете прикреплять файлы к сообщениям
Вы можете скачивать файлы