(Vocal Jazz / Contemporary Jazz / Smooth Jazz / Bossa Nova) Diana Krall - дискография - 1993 - 2015 (18 альбомов, GRP / Impulse! / Verve), FLAC (tracks+.cue), lossless

Ответить на тему
Статистика раздачи [Обновить пиров]
Размер:  5.85 GB   |    Зарегистрирован:  3 месяца 19 дней   |    Скачан:  0 раз

Полного источника не было: Никогда

 
   
 
 
 
Автор Сообщение

torrentc.info

Создавать темы 29-Авг-2017 19:23

[Цитировать]

Diana Krall - дискография-1993 - 2015 Страна: CanadaЖанр: Vocal Jazz / Contemporary Jazz / Smooth Jazz / Bossa NovaИздатель (лейбл): GRP / Impulse! / VerveКоличество альбомов: 18Аудио кодек: FLACТип рипа: tracks +.cueБитрейт аудио: lossless Наличие сканов: да (Complete Artwork)Продолжительность: 13:21:04 -

1993 - Stepping Out

Аудио кодек: FLAC
Тип рипа: tracks +.cue + covers
Битрейт аудио: lossless
Продолжительность: 54:33
Трэклист:
1. This Can't Be Love 4:27
2. Straighten Up And Fly Right 3:52
3. Between The Devil And The Deep Blue Sea 4:00
4. I'm Just A Lucky So And So 4:18
5. Body And Soul 5:31
6. 42nd Street 6:15
7. Do Nothin' Till You Hear From Me 4:26
8. Big Foot 7:02
9. Frim Fram Sauce 4:05
10. Jimmie 5:18
11. As Long As I Live 4:41
Diana Krall - piano, vocals
John Clayton - bass
Jeff Hamilton - drums

Original releases:
1993, US, GRP (Catalog No.: GRD-9825)
1993, Canada, Justin Time (Catalog No.: JUST 50-2)
2000, Canada, Justin Time (Catalog No.: JUST 50-2)
-Рип взят с Torrentc, за что большое спасибо arh.gavriil

Отчёт EAC:

Exact Audio Copy V0.99 prebeta 4 from 23. January 2008
EAC extraction logfile from 21. July 2008, 12:12
Diana Krall / Stepping Out
Used drive : TSSTcorpCDDVDW TS-H653N Adapter: 2 ID: 1
Read mode : SecureUtilize accurate stream : YesDefeat audio cache : YesMake use of C2 pointers : No
Read offset correction : 6Overread into Lead-In and Lead-Out : NoFill up missing offset samples with silence : YesDelete leading and trailing silent blocks : NoNull samples used in CRC calculations : YesUsed interface : Native Win32 interface for Win NT & 2000Gap handling : Appended to previous track
Used output format : User Defined EncoderSelected bitrate : 768 kBit/sQuality : HighAdd ID3 tag : NoCommand line compressor : C:\Program Files\FLAC\flac.exeAdditional command line options : -V -8 -T "artist=%a" -T "title=%t" -T "album=%g" -T "date=%y" -T "tracknumber=%n" %s
TOC of the extracted CD
Track | Start | Length | Start sector | End sector --------------------------------------------------------- 1 | 0:00.00 | 4:31.05 | 0 | 20329 2 | 4:31.05 | 3:56.47 | 20330 | 38076 3 | 8:27.52 | 4:04.63 | 38077 | 56439 4 | 12:32.40 | 4:23.35 | 56440 | 76199 5 | 16:56.00 | 5:35.02 | 76200 | 101326 6 | 22:31.02 | 6:23.28 | 101327 | 130079 7 | 28:54.30 | 4:33.20 | 130080 | 150574 8 | 33:27.50 | 7:07.52 | 150575 | 182651 9 | 40:35.27 | 4:07.65 | 182652 | 201241 10 | 44:43.17 | 5:26.20 | 201242 | 225711 11 | 50:09.37 | 4:41.38 | 225712 | 246824
Track 1
Filename C:\Hi there RIAA, What's up IFPI\Diana Krall - Stepping Out\01 - This Can't Be Love.wav
Pre-gap length 0:00:02.00
Peak level 94.6 % Track quality 100.0 % Test CRC F7F89744 Copy CRC F7F89744 Accurately ripped (confidence 10) [B069651D] Copy OK
Track 2
Filename C:\Hi there RIAA, What's up IFPI\Diana Krall - Stepping Out\02 - Straighten Up And Fly Right.wav
Pre-gap length 0:00:02.30
Peak level 94.6 % Track quality 100.0 % Test CRC 196118EB Copy CRC 196118EB Accurately ripped (confidence 10) [A293B782] Copy OK
Track 3
Filename C:\Hi there RIAA, What's up IFPI\Diana Krall - Stepping Out\03 - Between The Devil And The Deep Blue Sea.wav
Pre-gap length 0:00:02.62
Peak level 96.4 % Track quality 100.0 % Test CRC 2A9B5581 Copy CRC 2A9B5581 Accurately ripped (confidence 10) [27CC53D0] Copy OK
Track 4
Filename C:\Hi there RIAA, What's up IFPI\Diana Krall - Stepping Out\04 - I'm Just A Lucky So And So.wav
Pre-gap length 0:00:02.66
Peak level 94.6 % Track quality 100.0 % Test CRC AB38E039 Copy CRC AB38E039 Accurately ripped (confidence 10) [BCF740C4] Copy OK
Track 5
Filename C:\Hi there RIAA, What's up IFPI\Diana Krall - Stepping Out\05 - Body And Soul.wav
Pre-gap length 0:00:02.37
Peak level 94.6 % Track quality 100.0 % Test CRC 72E4B326 Copy CRC 72E4B326 Accurately ripped (confidence 10) [87CB3CD5] Copy OK
Track 6
Filename C:\Hi there RIAA, What's up IFPI\Diana Krall - Stepping Out\06 - 42nd Street.wav
Pre-gap length 0:00:00.02
Peak level 94.6 % Track quality 100.0 % Test CRC F705A2B5 Copy CRC F705A2B5 Accurately ripped (confidence 10) [F7A0F724] Copy OK
Track 7
Filename C:\Hi there RIAA, What's up IFPI\Diana Krall - Stepping Out\07 - Do Nothin' Till You Hear From Me.wav
Pre-gap length 0:00:01.60
Peak level 94.6 % Track quality 99.9 % Test CRC 8870332E Copy CRC 8870332E Accurately ripped (confidence 10) [46DF0B1A] Copy OK
Track 8
Filename C:\Hi there RIAA, What's up IFPI\Diana Krall - Stepping Out\08 - Big Foot.wav
Pre-gap length 0:00:00.53
Peak level 94.6 % Track quality 99.9 % Test CRC 352FDCB5 Copy CRC 352FDCB5 Accurately ripped (confidence 10) [FACB8808] Copy OK
Track 9
Filename C:\Hi there RIAA, What's up IFPI\Diana Krall - Stepping Out\09 - Frim Fram Sauce.wav
Pre-gap length 0:00:02.49
Peak level 94.6 % Track quality 100.0 % Test CRC 173F17E2 Copy CRC 173F17E2 Accurately ripped (confidence 10) [8AC6236B] Copy OK
Track 10
Filename C:\Hi there RIAA, What's up IFPI\Diana Krall - Stepping Out\10 - Jimmie.wav
Pre-gap length 0:00:02.46
Peak level 94.6 % Track quality 100.0 % Test CRC FCA4F3AF Copy CRC FCA4F3AF Accurately ripped (confidence 10) [7B44DC0A] Copy OK
Track 11
Filename C:\Hi there RIAA, What's up IFPI\Diana Krall - Stepping Out\11 - As Long As I Live.wav
Pre-gap length 0:00:00.26
Peak level 94.6 % Track quality 100.0 % Test CRC BFD34BF1 Copy CRC BFD34BF1 Accurately ripped (confidence 10) [3B1BD9B2] Copy OK
All tracks accurately ripped
No errors occurred
End of status report

.cue-файл:

REM DATE 1993REM DISCID 880CDB0BREM COMMENT "ExactAudioCopy v0.99pb4"PERFORMER "Diana Krall"TITLE "Stepping Out"FILE "01 - This Can't Be Love.flac" WAVE TRACK 01 AUDIO TITLE "This Can't Be Love" PERFORMER "Diana Krall" INDEX 01 00:00:00 TRACK 02 AUDIO TITLE "Straighten Up And Fly Right" PERFORMER "Diana Krall" INDEX 00 04:28:57FILE "02 - Straighten Up And Fly Right.flac" WAVE INDEX 01 00:00:00 TRACK 03 AUDIO TITLE "Between The Devil And The Deep Blue Sea" PERFORMER "Diana Krall" INDEX 00 03:54:00FILE "03 - Between The Devil And The Deep Blue Sea.flac" WAVE INDEX 01 00:00:00 TRACK 04 AUDIO TITLE "I'm Just A Lucky So And So" PERFORMER "Diana Krall" INDEX 00 04:02:13FILE "04 - I'm Just A Lucky So And So.flac" WAVE INDEX 01 00:00:00 TRACK 05 AUDIO TITLE "Body And Soul" PERFORMER "Diana Krall" INDEX 00 04:21:07FILE "05 - Body And Soul.flac" WAVE INDEX 01 00:00:00 TRACK 06 AUDIO TITLE "42nd Street" PERFORMER "Diana Krall" INDEX 00 05:35:00FILE "06 - 42nd Street.flac" WAVE INDEX 01 00:00:00 TRACK 07 AUDIO TITLE "Do Nothin' Till You Hear From Me" PERFORMER "Diana Krall" INDEX 00 06:21:58FILE "07 - Do Nothin' Till You Hear From Me.flac" WAVE INDEX 01 00:00:00 TRACK 08 AUDIO TITLE "Big Foot" PERFORMER "Diana Krall" INDEX 00 04:32:55FILE "08 - Big Foot.flac" WAVE INDEX 01 00:00:00 TRACK 09 AUDIO TITLE "Frim Fram Sauce" PERFORMER "Diana Krall" INDEX 00 07:05:15FILE "09 - Frim Fram Sauce.flac" WAVE INDEX 01 00:00:00 TRACK 10 AUDIO TITLE "Jimmie" PERFORMER "Diana Krall" INDEX 00 04:05:30FILE "10 - Jimmie.flac" WAVE INDEX 01 00:00:00 TRACK 11 AUDIO TITLE "As Long As I Live" PERFORMER "Diana Krall" INDEX 00 05:26:00FILE "11 - As Long As I Live.flac" WAVE INDEX 01 00:00:00

1995 - Only Trust Your Heart

Аудио кодек: FLAC
Тип рипа: tracks +.cue + covers
Битрейт аудио: lossless
Продолжительность: 46:55
Трэклист:
1. Is You Is Or Is You Ain't My Baby 4:57
2. Only Trust Your Heart 5:19
3. I Love Being Here With You 3:40
4. Broadway 7:27
5. Folks Who Live On The Hill 4:18
6. I've Got The World On A String 5:20
7. Squeeze Me 5:37
8. All Night Long 6:41
9. CRS Craft 3:30
Diana Krall - piano, vocals
Christian McBride (tracks: 2, 4 to 6, 8) - bass
Ray Brown (tracks: 1, 3, 7, 9) - bass
Lewis Nash - drums
Stanley Turrentine (tracks: 1, 3, 9) - tenor saxophone

Recorded September 13-16, 1994 at Power Station, NYC
Original releases:
1995, Switzerland, GRP (Catalog No.: GRP-9810-2)
1995, US, GRP / BMG Direct Marketing, Inc. (Catalog No.: GRP-9810-2 / D 108290)
-Рип взят с другого трекера

Отчёт EAC:

EAC extraction logfile from 20. July 2007, 17:11 for CDDiana Krall / Only Trust Your Heart
Used drive : COMPAQ DVD-ROM LTD163 Adapter: 1 ID: 0Read mode : Secure with NO C2, accurate stream, disable cacheRead offset correction : 594Overread into Lead-In and Lead-Out : No
Used output format : C:\Program\FLAC\flac.exe (User Defined Encoder) 320 kBit/s Additional command line options : -8 -V -T "ARTIST=%a" -T "TITLE=%t" -T "ALBUM=%g" -T "DATE=%y" -T "TRACKNUMBER=%n" -T "GENRE=%m" -T "COMMENT=EAC Flac 1.1.4 -8" %s
Other options : Fill up missing offset samples with silence : Yes Delete leading and trailing silent blocks : No Installed external ASPI interface
Track 1 Filename H:\EACtemp\Diana Krall - Only Thrust Your Heart (1995) [FLAC]\01 - Is You Is Or Is You Ain't My Baby.wav
Pre-gap length 0:00:02.42
Peak level 100.0 % Track quality 99.9 % Test CRC F8E0DECE Copy CRC F8E0DECE Copy OK
Track 2 Filename H:\EACtemp\Diana Krall - Only Thrust Your Heart (1995) [FLAC]\02 - Only Trust Your Heart.wav
Peak level 95.8 % Track quality 99.9 % Test CRC 57B94F21 Copy CRC 57B94F21 Copy OK
Track 3 Filename H:\EACtemp\Diana Krall - Only Thrust Your Heart (1995) [FLAC]\03 - I Love Being Here With You.wav
Peak level 100.0 % Track quality 100.0 % Test CRC AD6A7C08 Copy CRC AD6A7C08 Copy OK
Track 4 Filename H:\EACtemp\Diana Krall - Only Thrust Your Heart (1995) [FLAC]\04 - Broadway.wav
Peak level 100.0 % Track quality 100.0 % Test CRC DAE5870A Copy CRC DAE5870A Copy OK
Track 5 Filename H:\EACtemp\Diana Krall - Only Thrust Your Heart (1995) [FLAC]\05 - Folks Who Live On The Hill.wav
Peak level 100.0 % Track quality 100.0 % Test CRC 0CA4B6FA Copy CRC 0CA4B6FA Copy OK
Track 6 Filename H:\EACtemp\Diana Krall - Only Thrust Your Heart (1995) [FLAC]\06 - I've Got The World On A String.wav
Pre-gap length 0:00:00.32
Peak level 100.0 % Track quality 99.9 % Test CRC 1DABAAD6 Copy CRC 1DABAAD6 Copy OK
Track 7 Filename H:\EACtemp\Diana Krall - Only Thrust Your Heart (1995) [FLAC]\07 - Squeeze Me.wav
Peak level 92.8 % Track quality 100.0 % Test CRC 7C23A841 Copy CRC 7C23A841 Copy OK
Track 8 Filename H:\EACtemp\Diana Krall - Only Thrust Your Heart (1995) [FLAC]\08 - All Night Long.wav
Peak level 100.0 % Track quality 100.0 % Test CRC E12C393B Copy CRC E12C393B Copy OK
Track 9 Filename H:\EACtemp\Diana Krall - Only Thrust Your Heart (1995) [FLAC]\09 - CRS Craft.wav
Peak level 100.0 % Track quality 100.0 % Test CRC F12EF8EB Copy CRC F12EF8EB Copy OK
No errors occured
End of status report

.cue-файл:

REM GENRE JazzREM DATE 1995REM DISCID 880AFF09REM COMMENT "ExactAudioCopy v0.95b3"PERFORMER "Diana Krall"TITLE "Only Trust Your Heart"FILE "01 - Is You Is Or Is You Ain't My Baby.wav" WAVE TRACK 01 AUDIO TITLE "Is You Is Or Is You Ain't My Baby" PERFORMER "Diana Krall" PREGAP 00:00:32 INDEX 01 00:00:00FILE "02 - Only Trust Your Heart.wav" WAVE TRACK 02 AUDIO TITLE "Only Trust Your Heart" PERFORMER "Diana Krall" INDEX 01 00:00:00FILE "03 - I Love Being Here With You.wav" WAVE TRACK 03 AUDIO TITLE "I Love Being Here With You" PERFORMER "Diana Krall" INDEX 01 00:00:00FILE "04 - Broadway.wav" WAVE TRACK 04 AUDIO TITLE "Broadway" PERFORMER "Diana Krall" INDEX 01 00:00:00FILE "05 - Folks Who Live On The Hill.wav" WAVE TRACK 05 AUDIO TITLE "Folks Who Live On The Hill" PERFORMER "Diana Krall" INDEX 01 00:00:00 TRACK 06 AUDIO TITLE "I've Got The World On A String" PERFORMER "Diana Krall" INDEX 00 04:19:11FILE "06 - I've Got The World On A String.wav" WAVE INDEX 01 00:00:00FILE "07 - Squeeze Me.wav" WAVE TRACK 07 AUDIO TITLE "Squeeze Me" PERFORMER "Diana Krall" INDEX 01 00:00:00FILE "08 - All Night Long.wav" WAVE TRACK 08 AUDIO TITLE "All Night Long" PERFORMER "Diana Krall" INDEX 01 00:00:00FILE "09 - CRS Craft.wav" WAVE TRACK 09 AUDIO TITLE "CRS Craft" PERFORMER "Diana Krall" INDEX 01 00:00:00

1996 - All For You ( A Dedication To The Nat King Cole Trio )

Аудио кодек: FLAC
Тип рипа: tracks +.cue + covers
Битрейт аудио: lossless
Продолжительность: 54:37
Трэклист:
1. I'm An Errand Girl For Rhythm 2:56
2. Gee Baby, Ain't I Good To You 4:07
3. You Call It Madness 4:36
4. Frim Fram Sauce 5:00
5. Boulevard Of Broken Dreams 6:27
6. Baby Baby All The Time 3:35
7. Hit That Jive Jack 4:16
8. You're Looking At Me 5:33
9. I'm Thru With Love 4:25
10. Deed I Do 3:31
11. A Blossom Fell 5:12
12. If I Had You 4:57
Diana Krall - piano (tracks: 1 to 11), vocals
Paul Keller - bass
Russell Malone - guitar
Benny Green - piano (track 12)
Steve Kroon - percussion (track 5)

Recorded October 1995 in New York City
Original releases:
1996, UK, Impulse! (Catalog No.: IMP 11642)
1996, Russia, Universal Music (Russia) (Catalog No.: 051 164-9)
1996, US, Impulse! (Catalog No.: IMPD-182)
2005, Belgium, Impulse! (Reissue, Catalog No.: 0602498840160)
-Рип взят с Torrentc, за что большое спасибо arh.gavriil

Отчёт EAC:

EAC extraction logfile from 8. March 2007, 9:59 for CDDiana Krall / All For You
Used drive : PLEXTOR CD-R PX-230A Adapter: 1 ID: 0Read mode : Secure with NO C2, accurate stream, disable cacheRead offset correction : 738Overread into Lead-In and Lead-Out : No
Used output format : C:\Program Files\EAC\flac.exe (User Defined Encoder) 320 kBit/s Additional command line options : -V -8 -T "artist=%a" -T "title=%t" -T "album=%g" -T "date=%y" -T "tracknumber=%n" -T "genre=%m" %s
Other options : Fill up missing offset samples with silence : Yes Delete leading and trailing silent blocks : No Installed external ASPI interface
Track 1 Filename D:\Fiamma\Diana Krall - All For You (1996) [FLAC]\01 - I'm an Errand Girl for Rhythm.wav
Pre-gap length 0:00:02.00
Peak level 100.0 % Track quality 100.0 % Test CRC 467F1233 Copy CRC 467F1233 Copy OK
Track 2 Filename D:\Fiamma\Diana Krall - All For You (1996) [FLAC]\02 - Gee Baby, Ain't I Good to You.wav
Peak level 100.0 % Track quality 100.0 % Test CRC 7698A8DA Copy CRC 7698A8DA Copy OK
Track 3 Filename D:\Fiamma\Diana Krall - All For You (1996) [FLAC]\03 - You Call It Madness.wav
Peak level 85.2 % Track quality 100.0 % Test CRC F3E38B85 Copy CRC F3E38B85 Copy OK
Track 4 Filename D:\Fiamma\Diana Krall - All For You (1996) [FLAC]\04 - Frim Fram Sauce.wav
Peak level 100.0 % Track quality 100.0 % Test CRC 46733307 Copy CRC 46733307 Copy OK
Track 5 Filename D:\Fiamma\Diana Krall - All For You (1996) [FLAC]\05 - Boulevard of Broken Dreams.wav
Pre-gap length 0:00:00.73
Peak level 76.5 % Track quality 100.0 % Test CRC 79BA20FE Copy CRC 79BA20FE Copy OK
Track 6 Filename D:\Fiamma\Diana Krall - All For You (1996) [FLAC]\06 - Baby Baby All the Time.wav
Pre-gap length 0:00:00.06
Peak level 76.0 % Track quality 100.0 % Test CRC D51DA26F Copy CRC D51DA26F Copy OK
Track 7 Filename D:\Fiamma\Diana Krall - All For You (1996) [FLAC]\07 - Hit that Jive Jack.wav
Pre-gap length 0:00:01.50
Peak level 100.0 % Track quality 100.0 % Test CRC 2EE46EAC Copy CRC 2EE46EAC Copy OK
Track 8 Filename D:\Fiamma\Diana Krall - All For You (1996) [FLAC]\08 - You're Looking at Me.wav
Pre-gap length 0:00:00.46
Peak level 67.9 % Track quality 99.9 % Test CRC 3226BC38 Copy CRC 3226BC38 Copy OK
Track 9 Filename D:\Fiamma\Diana Krall - All For You (1996) [FLAC]\09 - I'm Thru with Love.wav
Peak level 64.2 % Track quality 99.9 % Test CRC 922A6F8D Copy CRC 922A6F8D Copy OK
Track 10 Filename D:\Fiamma\Diana Krall - All For You (1996) [FLAC]\10 - Deed I Do.wav
Peak level 98.3 % Track quality 100.0 % Test CRC 0274F7AD Copy CRC 0274F7AD Copy OK
Track 11 Filename D:\Fiamma\Diana Krall - All For You (1996) [FLAC]\11 - A Blossom Fell.wav
Pre-gap length 0:00:00.20
Peak level 82.6 % Track quality 100.0 % Test CRC 56223D01 Copy CRC 56223D01 Copy OK
Track 12 Filename D:\Fiamma\Diana Krall - All For You (1996) [FLAC]\12 - If I Had You.wav
Pre-gap length 0:00:00.46
Peak level 99.9 % Track quality 100.0 % Test CRC 13DC1FF9 Copy CRC 13DC1FF9 Copy OK
No errors occured
End of status report

.cue-файл:

PERFORMER "Diana Krall"TITLE "All For You"FILE "01 - I'm an Errand Girl for Rhythm.wav" WAVE TRACK 01 AUDIO TITLE "I'm an Errand Girl for Rhythm" PERFORMER "Diana Krall" INDEX 01 00:00:00FILE "02 - Gee Baby, Ain't I Good to You.wav" WAVE TRACK 02 AUDIO TITLE "Gee Baby, Ain't I Good to You" PERFORMER "Diana Krall" INDEX 01 00:00:00FILE "03 - You Call It Madness.wav" WAVE TRACK 03 AUDIO TITLE "You Call It Madness" PERFORMER "Diana Krall" INDEX 01 00:00:00FILE "04 - Frim Fram Sauce.wav" WAVE TRACK 04 AUDIO TITLE "Frim Fram Sauce" PERFORMER "Diana Krall" INDEX 01 00:00:00 TRACK 05 AUDIO TITLE "Boulevard of Broken Dreams" PERFORMER "Diana Krall" INDEX 00 05:00:12FILE "05 - Boulevard of Broken Dreams.wav" WAVE INDEX 01 00:00:00 TRACK 06 AUDIO TITLE "Baby Baby All the Time" PERFORMER "Diana Krall" INDEX 00 06:27:03FILE "06 - Baby Baby All the Time.wav" WAVE INDEX 01 00:00:00 TRACK 07 AUDIO TITLE "Hit that Jive Jack" PERFORMER "Diana Krall" INDEX 00 03:34:17FILE "07 - Hit that Jive Jack.wav" WAVE INDEX 01 00:00:00 TRACK 08 AUDIO TITLE "You're Looking at Me" PERFORMER "Diana Krall" INDEX 00 04:16:30FILE "08 - You're Looking at Me.wav" WAVE INDEX 01 00:00:00FILE "09 - I'm Thru with Love.wav" WAVE TRACK 09 AUDIO TITLE "I'm Thru with Love" PERFORMER "Diana Krall" INDEX 01 00:00:00FILE "10 - Deed I Do.wav" WAVE TRACK 10 AUDIO TITLE "Deed I Do" PERFORMER "Diana Krall" INDEX 01 00:00:00 TRACK 11 AUDIO TITLE "A Blossom Fell" PERFORMER "Diana Krall" INDEX 00 03:31:50FILE "11 - A Blossom Fell.wav" WAVE INDEX 01 00:00:00 TRACK 12 AUDIO TITLE "If I Had You" PERFORMER "Diana Krall" INDEX 00 05:12:05FILE "12 - If I Had You.wav" WAVE INDEX 01 00:00:00

1997 - Love Scenes

Аудио кодек: FLAC
Тип рипа: tracks +.cue + covers
Битрейт аудио: lossless
Продолжительность: 58:03
Трэклист:
1. All Or Nothing At All 4:35
2. Peel Me A Grape 5:52
3. I Don't Know Enough About You 4:01
4. I Miss You So 4:42
5. They Can't Take That Away From Me 5:39
6. Lost Mind 3:48
7. I Don't Stand A Ghost Of A Chance With You 6:14
8. You're Getting To Be A Habit With Me 2:14
9. Gentle Rain 4:55
10. How Deep Is The Ocean ( How High Is The Sky ) 4:45
11. My Love Is 3:26
12. Garden In The Rain 4:56
13. That Old Feeling 2:32
Diana Krall - piano, lead vocal
Russell Malone - guitar
Christian McBride - bass

Original releases:
1997, US, Impulse! (Catalog No.: IMPD 233)
1997, Canada, Impulse! (Catalog No.: IMPSD 234)
1997, US, Impulse! / BMG Direct Marketing, Inc. (Catalog No.: IMPD 233 / D 12067)
-Собственный рип с фирменного диска из личной коллекции

Отчёт EAC:

Exact Audio Copy V1.0 beta 1 from 15. November 2010
Отчёт EAC об извлечении, выполненном 4. апреля 2012, 15:57
Diana Krall / Love Scenes
Дисковод: HL-DT-STDVDRAM GT32N Adapter: 1 ID: 0
Режим чтения : ДостоверностьИспользование точного потока : ДаОтключение кэша аудио : ДаИспользование указателей C2 : Нет
Коррекция смещения при чтении : 103Способность читать области Lead-in и Lead-out : НетЗаполнение пропущенных сэмплов тишиной : ДаУдаление блоков с тишиной в начале и конце : НетПри вычислениях CRC использовались нулевые сэмплы : ДаИнтерфейс : Встроенный Win32-интерфейс для Win NT/2000Обработка зазоров : Добавлено к предыдущему треку
Выходной формат : Пользовательский кодировщикВыбранный битрейт : 768 kBit/sКачество : ВысокийДобавление ID3-тега : НетУтилита сжатия : C:\Program Files (x86)\Exact Audio Copy\Flac\flac.exeДополнительные параметры : -8 -V %s
TOC извлечённого CD
Трек | Старт | Длительность | Начальный сектор | Конечный сектор --------------------------------------------------------------------- 1 | 0:00.32 | 4:36.33 | 32 | 20764 2 | 4:36.65 | 5:52.45 | 20765 | 47209 3 | 10:29.35 | 4:02.20 | 47210 | 65379 4 | 14:31.55 | 4:43.57 | 65380 | 86661 5 | 19:15.37 | 5:39.73 | 86662 | 112159 6 | 24:55.35 | 3:49.15 | 112160 | 129349 7 | 28:44.50 | 6:14.72 | 129350 | 157471 8 | 34:59.47 | 2:15.05 | 157472 | 167601 9 | 37:14.52 | 4:55.43 | 167602 | 189769 10 | 42:10.20 | 4:45.60 | 189770 | 211204 11 | 46:56.05 | 3:26.62 | 211205 | 226716 12 | 50:22.67 | 5:05.73 | 226717 | 249664 13 | 55:28.65 | 2:32.42 | 249665 | 261106
Трек 1
Имя файла C:\Users\Admin\Music\Diana Krall - дискография\1997 - Love Scenes [FLAC]\01. All Or Nothing At All.wav
Длина предзазора 0:00:02.32
Пиковый уровень 100.0 % Скорость извлечения 1.3 X Качество трека 100.0 % CRC теста 6F7B1F99 CRC копии 6F7B1F99 Точное извлечение (достоверность 10) [3589945A] Копирование... OK
Трек 2
Имя файла C:\Users\Admin\Music\Diana Krall - дискография\1997 - Love Scenes [FLAC]\02. Peel Me A Grape.wav
Длина предзазора 0:00:00.08
Пиковый уровень 100.0 % Скорость извлечения 1.5 X Качество трека 100.0 % CRC теста 535CB864 CRC копии 535CB864 Точное извлечение (достоверность 10) [8FB18231] Копирование... OK
Трек 3
Имя файла C:\Users\Admin\Music\Diana Krall - дискография\1997 - Love Scenes [FLAC]\03. I Don't Know Enough About You.wav
Пиковый уровень 100.0 % Скорость извлечения 1.6 X Качество трека 100.0 % CRC теста B02EE522 CRC копии B02EE522 Точное извлечение (достоверность 10) [7990A69B] Копирование... OK
Трек 4
Имя файла C:\Users\Admin\Music\Diana Krall - дискография\1997 - Love Scenes [FLAC]\04. I Miss You So.wav
Пиковый уровень 82.0 % Скорость извлечения 1.7 X Качество трека 100.0 % CRC теста 30D02EE4 CRC копии 30D02EE4 Точное извлечение (достоверность 10) [76AFB1A2] Копирование... OK
Трек 5
Имя файла C:\Users\Admin\Music\Diana Krall - дискография\1997 - Love Scenes [FLAC]\05. They Can't Take That Away From Me.wav
Длина предзазора 0:00:01.05
Пиковый уровень 100.0 % Скорость извлечения 1.9 X Качество трека 100.0 % CRC теста CB4F2CC6 CRC копии CB4F2CC6 Точное извлечение (достоверность 10) [38225BE3] Копирование... OK
Трек 6
Имя файла C:\Users\Admin\Music\Diana Krall - дискография\1997 - Love Scenes [FLAC]\06. Lost Mind.wav
Пиковый уровень 100.0 % Скорость извлечения 1.9 X Качество трека 100.0 % CRC теста C3057829 CRC копии C3057829 Точное извлечение (достоверность 10) [930EB218] Копирование... OK
Трек 7
Имя файла C:\Users\Admin\Music\Diana Krall - дискография\1997 - Love Scenes [FLAC]\07. I Don't Stand A Ghost Of A Chance With You.wav
Длина предзазора 0:00:00.55
Пиковый уровень 87.0 % Скорость извлечения 2.2 X Качество трека 100.0 % CRC теста C34B052F CRC копии C34B052F Точное извлечение (достоверность 10) [F41839CF] Копирование... OK
Трек 8
Имя файла C:\Users\Admin\Music\Diana Krall - дискография\1997 - Love Scenes [FLAC]\08. You're Getting To Be A Habit With Me.wav
Пиковый уровень 100.0 % Скорость извлечения 1.9 X Качество трека 100.0 % CRC теста 38685CB9 CRC копии 38685CB9 Точное извлечение (достоверность 10) [3F9D783C] Копирование... OK
Трек 9
Имя файла C:\Users\Admin\Music\Diana Krall - дискография\1997 - Love Scenes [FLAC]\09. Gentle Rain.wav
Пиковый уровень 100.0 % Скорость извлечения 2.3 X Качество трека 100.0 % CRC теста D3130734 CRC копии D3130734 Точное извлечение (достоверность 10) [BDC4E9E6] Копирование... OK
Трек 10
Имя файла C:\Users\Admin\Music\Diana Krall - дискография\1997 - Love Scenes [FLAC]\10. How Deep Is The Ocean (How High Is The Sky).wav
Пиковый уровень 100.0 % Скорость извлечения 2.4 X Качество трека 100.0 % CRC теста F2C170C0 CRC копии F2C170C0 Точное извлечение (достоверность 10) [13CB9E26] Копирование... OK
Трек 11
Имя файла C:\Users\Admin\Music\Diana Krall - дискография\1997 - Love Scenes [FLAC]\11. My Love Is.wav
Длина предзазора 0:00:00.20
Пиковый уровень 77.9 % Скорость извлечения 2.3 X Качество трека 100.0 % CRC теста 523C9151 CRC копии 523C9151 Точное извлечение (достоверность 10) [45982CBC] Копирование... OK
Трек 12
Имя файла C:\Users\Admin\Music\Diana Krall - дискография\1997 - Love Scenes [FLAC]\12. Garden In The Rain.wav
Длина предзазора 0:00:00.02
Пиковый уровень 92.8 % Скорость извлечения 2.6 X Качество трека 100.0 % CRC теста 8D935D3E CRC копии 8D935D3E Точное извлечение (достоверность 10) [4908A041] Копирование... OK
Трек 13
Имя файла C:\Users\Admin\Music\Diana Krall - дискография\1997 - Love Scenes [FLAC]\13. That Old Feeling.wav
Длина предзазора 0:00:09.20
Пиковый уровень 93.5 % Скорость извлечения 2.4 X Качество трека 100.0 % CRC теста D583690A CRC копии D583690A Точное извлечение (достоверность 10) [173B42ED] Копирование... OK
Все треки извлечены точно
Ошибок не произошло
Конец отчёта

.cue-файл:

REM GENRE JazzREM DATE 1997REM DISCID A40D990DREM COMMENT "ExactAudioCopy v1.0b1"PERFORMER "Diana Krall"TITLE "Love Scenes"FILE "01. All Or Nothing At All.wav" WAVE TRACK 01 AUDIO TITLE "All Or Nothing At All" PERFORMER "Diana Krall" PREGAP 00:00:32 INDEX 01 00:00:00 TRACK 02 AUDIO TITLE "Peel Me A Grape" PERFORMER "Diana Krall" INDEX 00 04:36:25FILE "02. Peel Me A Grape.wav" WAVE INDEX 01 00:00:00FILE "03. I Don't Know Enough About You.wav" WAVE TRACK 03 AUDIO TITLE "I Don't Know Enough About You" PERFORMER "Diana Krall" INDEX 01 00:00:00FILE "04. I Miss You So.wav" WAVE TRACK 04 AUDIO TITLE "I Miss You So" PERFORMER "Diana Krall" INDEX 01 00:00:00 TRACK 05 AUDIO TITLE "They Can't Take That Away From Me" PERFORMER "Diana Krall" INDEX 00 04:42:52FILE "05. They Can't Take That Away From Me.wav" WAVE INDEX 01 00:00:00FILE "06. Lost Mind.wav" WAVE TRACK 06 AUDIO TITLE "Lost Mind" PERFORMER "Diana Krall" INDEX 01 00:00:00 TRACK 07 AUDIO TITLE "I Don't Stand A Ghost Of A Chance With You" PERFORMER "Diana Krall" INDEX 00 03:48:35FILE "07. I Don't Stand A Ghost Of A Chance With You.wav" WAVE INDEX 01 00:00:00FILE "08. You're Getting To Be A Habit With Me.wav" WAVE TRACK 08 AUDIO TITLE "You're Getting To Be A Habit With Me" PERFORMER "Diana Krall" INDEX 01 00:00:00FILE "09. Gentle Rain.wav" WAVE TRACK 09 AUDIO TITLE "Gentle Rain" PERFORMER "Diana Krall" INDEX 01 00:00:00FILE "10. How Deep Is The Ocean (How High Is The Sky).wav" WAVE TRACK 10 AUDIO TITLE "How Deep Is The Ocean (How High Is The Sky)" PERFORMER "Diana Krall" INDEX 01 00:00:00 TRACK 11 AUDIO TITLE "My Love Is" PERFORMER "Diana Krall" INDEX 00 04:45:40FILE "11. My Love Is.wav" WAVE INDEX 01 00:00:00 TRACK 12 AUDIO TITLE "Garden In The Rain" PERFORMER "Diana Krall" INDEX 00 03:26:60FILE "12. Garden In The Rain.wav" WAVE INDEX 01 00:00:00 TRACK 13 AUDIO TITLE "That Old Feeling" PERFORMER "Diana Krall" INDEX 00 04:56:53FILE "13. That Old Feeling.wav" WAVE INDEX 01 00:00:00

1999 - When I Look In Your Eyes

Аудио кодек: FLAC
Тип рипа: tracks +.cue + covers
Битрейт аудио: lossless
Продолжительность: 54:18
Трэклист:
1. Let's Face The Music And Dance 5:18
2. Devil May Care 3:20
3. Let's Fall In Love 4:19
4. When I Look In Your Eyes 4:31
5. Popsicle Toes 4:28
6. I've Got You Under My Skin 6:10
7. I Can't Give You Anything But Love 2:32
8. I'll String Along With You 4:45
9. East Of The Sun ( And West Of The Moon ) 4:57
10. Pick Yourself Up 3:02
11. The Best Thing For You 2:37
12. Do It Again 4:35
13. Why Should I Care? 3:44
Diana Krall - piano, vocals
Russell Malone - guitar
Ben Wolfe - bass (tracks: 2, 6, 8, 9)
John Clayton - bass (tracks: 1, 3, 5, 10 to 12)
Jeff Hamilton - drums (tracks: 1, 3, 5, 10 to 12)
Lewis Nash - drums (tracks: 6, 8)
Larry Bunker - vibes (tracks: 3, 6)

Original releases:
1999, UK, Impulse! (Catalog No.: IMP 304)
1999, US, Impulse! (Promo, Catalog No.: IMP5P-90152)
1999, US, Verve Records (Catalog No.: IMPD-304 / 050 304-2)
1999, Europe, Verve Records (Catalog No.: IMPD-304)
1999, Russia, GRP Records Inc. (Catalog No.: 050 304-9)
-Собственный рип с фирменного диска из личной коллекции

Отчёт EAC:

Exact Audio Copy V1.0 beta 1 from 15. November 2010
Отчёт EAC об извлечении, выполненном 4. апреля 2012, 19:49
Diana Krall / When I Look In Your Eyes
Дисковод: HL-DT-STDVDRAM GT32N Adapter: 1 ID: 0
Режим чтения : ДостоверностьИспользование точного потока : ДаОтключение кэша аудио : ДаИспользование указателей C2 : Нет
Коррекция смещения при чтении : 103Способность читать области Lead-in и Lead-out : НетЗаполнение пропущенных сэмплов тишиной : ДаУдаление блоков с тишиной в начале и конце : НетПри вычислениях CRC использовались нулевые сэмплы : ДаИнтерфейс : Встроенный Win32-интерфейс для Win NT/2000Обработка зазоров : Добавлено к предыдущему треку
Выходной формат : Пользовательский кодировщикВыбранный битрейт : 768 kBit/sКачество : ВысокийДобавление ID3-тега : НетУтилита сжатия : C:\Program Files (x86)\Exact Audio Copy\Flac\flac.exeДополнительные параметры : -8 -V %s
TOC извлечённого CD
Трек | Старт | Длительность | Начальный сектор | Конечный сектор --------------------------------------------------------------------- 1 | 0:00.33 | 5:18.27 | 33 | 23909 2 | 5:18.60 | 3:20.28 | 23910 | 38937 3 | 8:39.13 | 4:19.17 | 38938 | 58379 4 | 12:58.30 | 4:31.53 | 58380 | 78757 5 | 17:30.08 | 4:28.17 | 78758 | 98874 6 | 21:58.25 | 6:10.60 | 98875 | 126684 7 | 28:09.10 | 2:33.23 | 126685 | 138182 8 | 30:42.33 | 4:45.37 | 138183 | 159594 9 | 35:27.70 | 4:56.60 | 159595 | 181854 10 | 40:24.55 | 3:01.68 | 181855 | 195497 11 | 43:26.48 | 2:36.47 | 195498 | 207244 12 | 46:03.20 | 4:45.20 | 207245 | 228639 13 | 50:48.40 | 3:46.05 | 228640 | 245594
Трек 1
Имя файла C:\Users\Admin\Music\Diana Krall - дискография\1999 - When I Look In Your Eyes [FLAC]\01. Let's Face The Music And Dance.wav
Длина предзазора 0:00:02.33
Пиковый уровень 100.0 % Скорость извлечения 1.3 X Качество трека 100.0 % CRC теста 83703B06 CRC копии 83703B06 Точное извлечение (достоверность 11) [03DAFDEB] Копирование... OK
Трек 2
Имя файла C:\Users\Admin\Music\Diana Krall - дискография\1999 - When I Look In Your Eyes [FLAC]\02. Devil May Care.wav
Длина предзазора 0:00:00.13
Пиковый уровень 100.0 % Скорость извлечения 1.4 X Качество трека 100.0 % CRC теста 550C3B29 CRC копии 550C3B29 Точное извлечение (достоверность 11) [444ED365] Копирование... OK
Трек 3
Имя файла C:\Users\Admin\Music\Diana Krall - дискография\1999 - When I Look In Your Eyes [FLAC]\03. Let's Fall In Love.wav
Длина предзазора 0:00:00.23
Пиковый уровень 100.0 % Скорость извлечения 1.5 X Качество трека 100.0 % CRC теста 564DFD20 CRC копии 564DFD20 Точное извлечение (достоверность 11) [C08518B1] Копирование... OK
Трек 4
Имя файла C:\Users\Admin\Music\Diana Krall - дискография\1999 - When I Look In Your Eyes [FLAC]\04. When I Look In Your Eyes.wav
Длина предзазора 0:00:00.20
Пиковый уровень 100.0 % Скорость извлечения 1.7 X Качество трека 100.0 % CRC теста BB6FF57B CRC копии BB6FF57B Точное извлечение (достоверность 11) [FC8FB4F0] Копирование... OK
Трек 5
Имя файла C:\Users\Admin\Music\Diana Krall - дискография\1999 - When I Look In Your Eyes [FLAC]\05. Popsicle Toes.wav
Длина предзазора 0:00:00.20
Пиковый уровень 100.0 % Скорость извлечения 1.8 X Качество трека 100.0 % CRC теста 377697CA CRC копии 377697CA Точное извлечение (достоверность 11) [FDC29B16] Копирование... OK
Трек 6
Имя файла C:\Users\Admin\Music\Diana Krall - дискография\1999 - When I Look In Your Eyes [FLAC]\06. I've Got You Under My Skin.wav
Длина предзазора 0:00:00.28
Пиковый уровень 100.0 % Скорость извлечения 2.0 X Качество трека 100.0 % CRC теста 0B8770BB CRC копии 0B8770BB Точное извлечение (достоверность 11) [EFA96E30] Копирование... OK
Трек 7
Имя файла C:\Users\Admin\Music\Diana Krall - дискография\1999 - When I Look In Your Eyes [FLAC]\07. I Can't Give You Anything But Love.wav
Длина предзазора 0:00:00.28
Пиковый уровень 100.0 % Скорость извлечения 1.9 X Качество трека 100.0 % CRC теста A494C8D3 CRC копии A494C8D3 Точное извлечение (достоверность 11) [115D18A0] Копирование... OK
Трек 8
Имя файла C:\Users\Admin\Music\Diana Krall - дискография\1999 - When I Look In Your Eyes [FLAC]\08. I'll String Along With You.wav
Длина предзазора 0:00:00.23
Пиковый уровень 100.0 % Скорость извлечения 2.1 X Качество трека 100.0 % CRC теста 7534C063 CRC копии 7534C063 Точное извлечение (достоверность 11) [5DA7307F] Копирование... OK
Трек 9
Имя файла C:\Users\Admin\Music\Diana Krall - дискография\1999 - When I Look In Your Eyes [FLAC]\09. East Of The Sun (And West Of The Moon).wav
Длина предзазора 0:00:00.30
Пиковый уровень 100.0 % Скорость извлечения 2.2 X Качество трека 100.0 % CRC теста ADB3E5F2 CRC копии ADB3E5F2 Точное извлечение (достоверность 11) [F7123004] Копирование... OK
Трек 10
Имя файла C:\Users\Admin\Music\Diana Krall - дискография\1999 - When I Look In Your Eyes [FLAC]\10. Pick Yourself Up.wav
Длина предзазора 0:00:00.25
Пиковый уровень 100.0 % Скорость извлечения 2.1 X Качество трека 100.0 % CRC теста 31CD9AE5 CRC копии 31CD9AE5 Точное извлечение (достоверность 11) [0C7BE579] Копирование... OK
Трек 11
Имя файла C:\Users\Admin\Music\Diana Krall - дискография\1999 - When I Look In Your Eyes [FLAC]\11. The Best Thing For You.wav
Длина предзазора 0:00:00.18
Пиковый уровень 100.0 % Скорость извлечения 2.1 X Качество трека 100.0 % CRC теста 365895CD CRC копии 365895CD Точное извлечение (достоверность 11) [91A06B81] Копирование... OK
Трек 12
Имя файла C:\Users\Admin\Music\Diana Krall - дискография\1999 - When I Look In Your Eyes [FLAC]\12. Do It Again.wav
Длина предзазора 0:00:00.03
Пиковый уровень 100.0 % Скорость извлечения 2.2 X Качество трека 99.9 % CRC теста CB23D300 CRC копии CB23D300 Точное извлечение (достоверность 11) [8D4B3661] Копирование... OK
Трек 13
Имя файла C:\Users\Admin\Music\Diana Krall - дискография\1999 - When I Look In Your Eyes [FLAC]\13. Why Should I Care.wav
Длина предзазора 0:00:10.55
Пиковый уровень 100.0 % Скорость извлечения 2.5 X Качество трека 100.0 % CRC теста EC67A990 CRC копии EC67A990 Точное извлечение (достоверность 11) [DFEBCE7F] Копирование... OK
Все треки извлечены точно
Ошибок не произошло
Конец отчёта

.cue-файл:

REM GENRE JazzREM DATE 1999REM DISCID 960CCA0DREM COMMENT "ExactAudioCopy v1.0b1"PERFORMER "Diana Krall"TITLE "When I Look In Your Eyes"FILE "01. Let's Face The Music And Dance.wav" WAVE TRACK 01 AUDIO TITLE "Let's Face The Music And Dance" PERFORMER "Diana Krall" PREGAP 00:00:33 INDEX 01 00:00:00 TRACK 02 AUDIO TITLE "Devil May Care" PERFORMER "Diana Krall" INDEX 00 05:18:14FILE "02. Devil May Care.wav" WAVE INDEX 01 00:00:00 TRACK 03 AUDIO TITLE "Let's Fall In Love" PERFORMER "Diana Krall" INDEX 00 03:20:05FILE "03. Let's Fall In Love.wav" WAVE INDEX 01 00:00:00 TRACK 04 AUDIO TITLE "When I Look In Your Eyes" PERFORMER "Diana Krall" INDEX 00 04:18:72FILE "04. When I Look In Your Eyes.wav" WAVE INDEX 01 00:00:00 TRACK 05 AUDIO TITLE "Popsicle Toes" PERFORMER "Diana Krall" INDEX 00 04:31:33FILE "05. Popsicle Toes.wav" WAVE INDEX 01 00:00:00 TRACK 06 AUDIO TITLE "I've Got You Under My Skin" PERFORMER "Diana Krall" INDEX 00 04:27:64FILE "06. I've Got You Under My Skin.wav" WAVE INDEX 01 00:00:00 TRACK 07 AUDIO TITLE "I Can't Give You Anything But Love" PERFORMER "Diana Krall" INDEX 00 06:10:32FILE "07. I Can't Give You Anything But Love.wav" WAVE INDEX 01 00:00:00 TRACK 08 AUDIO TITLE "I'll String Along With You" PERFORMER "Diana Krall" INDEX 00 02:33:00FILE "08. I'll String Along With You.wav" WAVE INDEX 01 00:00:00 TRACK 09 AUDIO TITLE "East Of The Sun (And West Of The Moon)" PERFORMER "Diana Krall" INDEX 00 04:45:07FILE "09. East Of The Sun (And West Of The Moon).wav" WAVE INDEX 01 00:00:00 TRACK 10 AUDIO TITLE "Pick Yourself Up" PERFORMER "Diana Krall" INDEX 00 04:56:35FILE "10. Pick Yourself Up.wav" WAVE INDEX 01 00:00:00 TRACK 11 AUDIO TITLE "The Best Thing For You" PERFORMER "Diana Krall" INDEX 00 03:01:50FILE "11. The Best Thing For You.wav" WAVE INDEX 01 00:00:00 TRACK 12 AUDIO TITLE "Do It Again" PERFORMER "Diana Krall" INDEX 00 02:36:44FILE "12. Do It Again.wav" WAVE INDEX 01 00:00:00 TRACK 13 AUDIO TITLE "Why Should I Care" PERFORMER "Diana Krall" INDEX 00 04:34:40FILE "13. Why Should I Care.wav" WAVE INDEX 01 00:00:00

2001 - The Look Of Love

Аудио кодек: FLAC
Тип рипа: tracks +.cue + covers
Битрейт аудио: lossless
Продолжительность: 50:26
Трэклист:
1. S`Wonderful 4:28
2. Love Letters 4:55
3. I Remember You 3:55
4. Cry Me A River 5:03
5. Besame Mucho 6:40
6. The Night We Called It A Day 5:41
7. Dancing In The Dark 5:48
8. I Get Along Without You Very Well 3:44
9. The Look Of Love 4:42
10. Maybe You'll Be There 5:30
Diana Krall - piano, vocals
Christian McBride - bass
Jeff Hamilton - drums (tracks: 1, 3, 5)
Peter Erskine - drums (tracks: 2, 4, 6, 7 to 10)
Dori Caymmi (2) - guitar (track 1)
John Pisano - guitar (tracks: 3, 5)
Romero Lubambo - guitar (tracks: 7, 9)
Russell Malone - guitar (tracks: 2, 4, 6, 8, 10)
Luis Conte - percussion (tracks: 7, 9)
Paulinho Da Costa - percussion (tracks: 1, 3, 5)
London Symphony Orchestra, Nat Peck - conductor (tracks: 2, 4, 6 to 10)
Los Angeles Session Orchestra, Jules Chaiken - conductor (tracks: 1, 3 , 5)
Orchestra arranged and conducted by Claus Ogerman

Diana Krall with her quartet and the London Symphony Ochestra
perform a sensual collection of ballads and bossa novas.
Tracks 2, 4, 6 to 10 recorded January 22-27, 2001 at Avatar Studios, NYC
and mixed March 19-23 at Capitol Studios, Hollywood.
London Symphony Orchestra recorded March 9-11, 2001 at Abby Road Studios, London.
Tracks 1, 3, 5 recorded June 3-4, 2001 and mixed June 5-7, 2001 at Capitol Studios, Hollywood.
Original releases:
2001, US, Verve Records (Catalog No.: 549 846-2 / 314 589 182-2)
2001, Europe, Verve Records (Catalog No.: 549 846-2)
-Собственный рип с фирменного диска из личной коллекции

Отчёт EAC:

Exact Audio Copy V1.0 beta 1 from 15. November 2010
Отчёт EAC об извлечении, выполненном 5. апреля 2012, 8:04
Diana Krall / The Look Of Love
Дисковод: HL-DT-STDVDRAM GT32N Adapter: 1 ID: 0
Режим чтения : ДостоверностьИспользование точного потока : ДаОтключение кэша аудио : ДаИспользование указателей C2 : Нет
Коррекция смещения при чтении : 103Способность читать области Lead-in и Lead-out : НетЗаполнение пропущенных сэмплов тишиной : ДаУдаление блоков с тишиной в начале и конце : НетПри вычислениях CRC использовались нулевые сэмплы : ДаИнтерфейс : Встроенный Win32-интерфейс для Win NT/2000Обработка зазоров : Добавлено к предыдущему треку
Выходной формат : Пользовательский кодировщикВыбранный битрейт : 768 kBit/sКачество : ВысокийДобавление ID3-тега : НетУтилита сжатия : C:\Program Files (x86)\Exact Audio Copy\Flac\flac.exeДополнительные параметры : -8 -V %s
TOC извлечённого CD
Трек | Старт | Длительность | Начальный сектор | Конечный сектор --------------------------------------------------------------------- 1 | 0:00.00 | 4:29.15 | 0 | 20189 2 | 4:29.15 | 4:56.10 | 20190 | 42399 3 | 9:25.25 | 3:56.25 | 42400 | 60124 4 | 13:21.50 | 5:03.43 | 60125 | 82892 5 | 18:25.18 | 6:40.32 | 82893 | 112924 6 | 25:05.50 | 5:43.45 | 112925 | 138694 7 | 30:49.20 | 5:48.33 | 138695 | 164827 8 | 36:37.53 | 3:44.60 | 164828 | 181687 9 | 40:22.38 | 4:42.00 | 181688 | 202837 10 | 45:04.38 | 5:30.13 | 202838 | 227600
Трек 1
Имя файла C:\Users\Admin\Music\Diana Krall - дискография\2001 - The Look Of Love [FLAC]\01. S'Wonderful.wav
Длина предзазора 0:00:02.00
Пиковый уровень 100.0 % Скорость извлечения 1.2 X Качество трека 100.0 % CRC теста 43F181DF CRC копии 43F181DF Точное извлечение (достоверность 9) [A4028CB4] Копирование... OK
Трек 2
Имя файла C:\Users\Admin\Music\Diana Krall - дискография\2001 - The Look Of Love [FLAC]\02. Love Letters.wav
Длина предзазора 0:00:00.33
Пиковый уровень 100.0 % Скорость извлечения 1.3 X Качество трека 100.0 % CRC теста DF402748 CRC копии DF402748 Точное извлечение (достоверность 9) [377CF193] Копирование... OK
Трек 3
Имя файла C:\Users\Admin\Music\Diana Krall - дискография\2001 - The Look Of Love [FLAC]\03. I Remember You.wav
Длина предзазора 0:00:00.35
Пиковый уровень 100.0 % Скорость извлечения 1.4 X Качество трека 100.0 % CRC теста 7847E1FD CRC копии 7847E1FD Точное извлечение (достоверность 9) [CAD763AA] Копирование... OK
Трек 4
Имя файла C:\Users\Admin\Music\Diana Krall - дискография\2001 - The Look Of Love [FLAC]\04. Cry Me A River.wav
Длина предзазора 0:00:00.63
Пиковый уровень 100.0 % Скорость извлечения 1.6 X Качество трека 100.0 % CRC теста 75E4EBEF CRC копии 75E4EBEF Точное извлечение (достоверность 9) [3E4B6649] Копирование... OK
Трек 5
Имя файла C:\Users\Admin\Music\Diana Krall - дискография\2001 - The Look Of Love [FLAC]\05. Besame Mucho.wav
Пиковый уровень 100.0 % Скорость извлечения 1.8 X Качество трека 100.0 % CRC теста E05644C7 CRC копии E05644C7 Точное извлечение (достоверность 8) [D4B77536] Копирование... OK
Трек 6
Имя файла C:\Users\Admin\Music\Diana Krall - дискография\2001 - The Look Of Love [FLAC]\06. The Night We Called It A Day.wav
Длина предзазора 0:00:00.15
Пиковый уровень 100.0 % Скорость извлечения 1.9 X Качество трека 100.0 % CRC теста 24121EAF CRC копии 24121EAF Точное извлечение (достоверность 9) [0DC7DA7F] Копирование... OK
Трек 7
Имя файла C:\Users\Admin\Music\Diana Krall - дискография\2001 - The Look Of Love [FLAC]\07. Dancing In The Dark.wav
Длина предзазора 0:00:01.70
Пиковый уровень 100.0 % Скорость извлечения 2.0 X Качество трека 100.0 % CRC теста 0F07CD0A CRC копии 0F07CD0A Точное извлечение (достоверность 9) [BB81EEB2] Копирование... OK
Трек 8
Имя файла C:\Users\Admin\Music\Diana Krall - дискография\2001 - The Look Of Love [FLAC]\08. I Get Along Without You Very Well.wav
Пиковый уровень 100.0 % Скорость извлечения 1.7 X Качество трека 99.9 % CRC теста 418B78E0 CRC копии 418B78E0 Точное извлечение (достоверность 9) [7586F2AF] Копирование... OK
Трек 9
Имя файла C:\Users\Admin\Music\Diana Krall - дискография\2001 - The Look Of Love [FLAC]\09. The Look Of Love.wav
Длина предзазора 0:00:00.13
Пиковый уровень 100.0 % Скорость извлечения 2.2 X Качество трека 100.0 % CRC теста 4F51AAF6 CRC копии 4F51AAF6 Точное извлечение (достоверность 9) [539635EA] Копирование... OK
Трек 10
Имя файла C:\Users\Admin\Music\Diana Krall - дискография\2001 - The Look Of Love [FLAC]\10. Maybe You'll Be There.wav
Пиковый уровень 100.0 % Скорость извлечения 2.3 X Качество трека 100.0 % CRC теста 3E53305F CRC копии 3E53305F Точное извлечение (достоверность 9) [1443E738] Копирование... OK
Все треки извлечены точно
Ошибок не произошло
Конец отчёта

.cue-файл:

REM GENRE JazzREM DATE 2001REM DISCID 7E0BDA0AREM COMMENT "ExactAudioCopy v1.0b1"PERFORMER "Diana Krall"TITLE "The Look Of Love"FILE "01. S'Wonderful.wav" WAVE TRACK 01 AUDIO TITLE "S'Wonderful" PERFORMER "Diana Krall" INDEX 01 00:00:00 TRACK 02 AUDIO TITLE "Love Letters" PERFORMER "Diana Krall" INDEX 00 04:28:57FILE "02. Love Letters.wav" WAVE INDEX 01 00:00:00 TRACK 03 AUDIO TITLE "I Remember You" PERFORMER "Diana Krall" INDEX 00 04:55:50FILE "03. I Remember You.wav" WAVE INDEX 01 00:00:00 TRACK 04 AUDIO TITLE "Cry Me A River" PERFORMER "Diana Krall" INDEX 00 03:55:37FILE "04. Cry Me A River.wav" WAVE INDEX 01 00:00:00FILE "05. Besame Mucho.wav" WAVE TRACK 05 AUDIO TITLE "Besame Mucho" PERFORMER "Diana Krall" INDEX 01 00:00:00 TRACK 06 AUDIO TITLE "The Night We Called It A Day" PERFORMER "Diana Krall" INDEX 00 06:40:17FILE "06. The Night We Called It A Day.wav" WAVE INDEX 01 00:00:00 TRACK 07 AUDIO TITLE "Dancing In The Dark" PERFORMER "Diana Krall" INDEX 00 05:41:50FILE "07. Dancing In The Dark.wav" WAVE INDEX 01 00:00:00FILE "08. I Get Along Without You Very Well.wav" WAVE TRACK 08 AUDIO TITLE "I Get Along Without You Very Well" PERFORMER "Diana Krall" INDEX 01 00:00:00 TRACK 09 AUDIO TITLE "The Look Of Love" PERFORMER "Diana Krall" INDEX 00 03:44:47FILE "09. The Look Of Love.wav" WAVE INDEX 01 00:00:00FILE "10. Maybe You'll Be There.wav" WAVE TRACK 10 AUDIO TITLE "Maybe You'll Be There" PERFORMER "Diana Krall" INDEX 01 00:00:00

2002 - Live In Paris ( Live )

Аудио кодек: FLAC
Тип рипа: tracks +.cue + covers
Битрейт аудио: lossless
Продолжительность: 01:10:02
Трэклист:
1. I Love Being Here With You 5:12
2. Let's Fall In Love 4:34
3. 'Deed I Do 5:18
4. The Look Of Love 5:00
5. East Of The Sun ( And West Of The Moon ) 5:58
6. I've Got You Under My Skin 7:24
7. Devil May Care 6:52
8. Maybe You'll Be There 5:48
9. 'S Wonderful 6:00
10. Fly Me To The Moon 6:06
11. A Case Of You 6:50
12. Just The Way You Are 5:00
Diana Krall - piano, vocals
John Clayton - bass
Jeff Hamilton - drums
Anthony Wilson - guitar
Paulinho Da Costa - percussion

Orchestre Symphonique Europeen, Alan Broadbent - conductor (tracks: 2, 6)
John Pisano - acoustic guitar, guitar (tracks: 4, 6, 9)
Christian McBride - bass (track 12)
Lewis Nash - drums (track 12)
Rob Mounsey - keyboards (track 12)
Luis Quintero - percussion (track 12)
Michael Brecker - tenor saxophone solo (track 12)

Tracks 1 to 11 recorded live at the Paris Olympia November 29-30 and December 1-2, 2001
Track 12 recorded at Avatar Studios, New York
Original releases:
2002, US, Verve Records (Catalog No.: 065 109-2)
2002, UK, Verve Records (Catalog No.: 065 109-2)
-Собственный рип с фирменного диска из личной коллекции

Отчёт EAC:

Exact Audio Copy V1.0 beta 1 from 15. November 2010
Отчёт EAC об извлечении, выполненном 4. апреля 2012, 23:32
Diana Krall / Live in Paris
Дисковод: HL-DT-STDVDRAM GT32N Adapter: 1 ID: 0
Режим чтения : ДостоверностьИспользование точного потока : ДаОтключение кэша аудио : ДаИспользование указателей C2 : Нет
Коррекция смещения при чтении : 103Способность читать области Lead-in и Lead-out : НетЗаполнение пропущенных сэмплов тишиной : ДаУдаление блоков с тишиной в начале и конце : НетПри вычислениях CRC использовались нулевые сэмплы : ДаИнтерфейс : Встроенный Win32-интерфейс для Win NT/2000Обработка зазоров : Добавлено к предыдущему треку
Выходной формат : Пользовательский кодировщикВыбранный битрейт : 768 kBit/sКачество : ВысокийДобавление ID3-тега : НетУтилита сжатия : C:\Program Files (x86)\Exact Audio Copy\Flac\flac.exeДополнительные параметры : -8 -V %s
TOC извлечённого CD
Трек | Старт | Длительность | Начальный сектор | Конечный сектор --------------------------------------------------------------------- 1 | 0:00.00 | 5:13.15 | 0 | 23489 2 | 5:13.15 | 4:34.14 | 23490 | 44053 3 | 9:47.29 | 5:17.72 | 44054 | 67900 4 | 15:05.26 | 5:00.11 | 67901 | 90411 5 | 20:05.37 | 5:58.21 | 90412 | 117282 6 | 26:03.58 | 7:24.24 | 117283 | 150606 7 | 33:28.07 | 6:52.26 | 150607 | 181532 8 | 40:20.33 | 5:47.47 | 181533 | 207604 9 | 46:08.05 | 5:59.53 | 207605 | 234582 10 | 52:07.58 | 6:05.62 | 234583 | 262019 11 | 58:13.45 | 7:04.40 | 262020 | 293859 12 | 65:18.10 | 5:00.39 | 293860 | 316398
Трек 1
Имя файла C:\Users\Admin\Music\Diana Krall - дискография\2002 - Live In Paris ( Live ) [FLAC]\01. I Love Being Here With You.wav
Длина предзазора 0:00:02.00
Пиковый уровень 100.0 % Скорость извлечения 1.4 X Качество трека 100.0 % CRC теста 134E0E20 CRC копии 134E0E20 Точное извлечение (достоверность 22) [D9897A1D] Копирование... OK
Трек 2
Имя файла C:\Users\Admin\Music\Diana Krall - дискография\2002 - Live In Paris ( Live ) [FLAC]\02. Let's Fall In Love.wav
Пиковый уровень 100.0 % Скорость извлечения 1.5 X Качество трека 100.0 % CRC теста F1B4C28B CRC копии F1B4C28B Точное извлечение (достоверность 22) [766E7F32] Копирование... OK
Трек 3
Имя файла C:\Users\Admin\Music\Diana Krall - дискография\2002 - Live In Paris ( Live ) [FLAC]\03. 'Deed I Do.wav
Пиковый уровень 100.0 % Скорость извлечения 1.6 X Качество трека 100.0 % CRC теста FC584E61 CRC копии FC584E61 Точное извлечение (достоверность 22) [63A1B7C9] Копирование... OK
Трек 4
Имя файла C:\Users\Admin\Music\Diana Krall - дискография\2002 - Live In Paris ( Live ) [FLAC]\04. The Look Of Love.wav
Пиковый уровень 100.0 % Скорость извлечения 1.8 X Качество трека 100.0 % CRC теста 7F154F64 CRC копии 7F154F64 Точное извлечение (достоверность 22) [225B528A] Копирование... OK
Трек 5
Имя файла C:\Users\Admin\Music\Diana Krall - дискография\2002 - Live In Paris ( Live ) [FLAC]\05. East Of The Sun (And West Of The Moon).wav
Пиковый уровень 100.0 % Скорость извлечения 1.8 X Качество трека 99.9 % CRC теста 9289C032 CRC копии 9289C032 Точное извлечение (достоверность 22) [69E62680] Копирование... OK
Трек 6
Имя файла C:\Users\Admin\Music\Diana Krall - дискография\2002 - Live In Paris ( Live ) [FLAC]\06. I've Got You Under My Skin.wav
Пиковый уровень 100.0 % Скорость извлечения 2.0 X Качество трека 99.9 % CRC теста F706A48C CRC копии F706A48C Точное извлечение (достоверность 22) [E9EBDA5B] Копирование... OK
Трек 7
Имя файла C:\Users\Admin\Music\Diana Krall - дискография\2002 - Live In Paris ( Live ) [FLAC]\07. Devil May Care.wav
Пиковый уровень 100.0 % Скорость извлечения 2.3 X Качество трека 100.0 % CRC теста F66E0CDB CRC копии F66E0CDB Точное извлечение (достоверность 22) [C3619906] Копирование... OK
Трек 8
Имя файла C:\Users\Admin\Music\Diana Krall - дискография\2002 - Live In Paris ( Live ) [FLAC]\08. Maybe You'll Be There.wav
Пиковый уровень 89.9 % Скорость извлечения 2.3 X Качество трека 100.0 % CRC теста 0FBF2A59 CRC копии 0FBF2A59 Точное извлечение (достоверность 23) [FE0D5364] Копирование... OK
Трек 9
Имя файла C:\Users\Admin\Music\Diana Krall - дискография\2002 - Live In Paris ( Live ) [FLAC]\09. 'S Wonderful.wav
Пиковый уровень 100.0 % Скорость извлечения 2.5 X Качество трека 100.0 % CRC теста EEF9B3CC CRC копии EEF9B3CC Точное извлечение (достоверность 21) [62146783] Копирование... OK
Трек 10
Имя файла C:\Users\Admin\Music\Diana Krall - дискография\2002 - Live In Paris ( Live ) [FLAC]\10. Fly Me To The Moon.wav
Пиковый уровень 100.0 % Скорость извлечения 2.6 X Качество трека 100.0 % CRC теста DCAF4EC8 CRC копии DCAF4EC8 Точное извлечение (достоверность 22) [5D7A9AC6] Копирование... OK
Трек 11
Имя файла C:\Users\Admin\Music\Diana Krall - дискография\2002 - Live In Paris ( Live ) [FLAC]\11. A Case Of You.wav
Пиковый уровень 100.0 % Скорость извлечения 2.7 X Качество трека 100.0 % CRC теста B686E119 CRC копии B686E119 Точное извлечение (достоверность 20) [0CB22155] Копирование... OK
Трек 12
Имя файла C:\Users\Admin\Music\Diana Krall - дискография\2002 - Live In Paris ( Live ) [FLAC]\12. Just The Way You Are.wav
Длина предзазора 0:00:14.53
Пиковый уровень 100.0 % Скорость извлечения 2.5 X Качество трека 99.9 % CRC теста 2AC0B684 CRC копии 2AC0B684 Точное извлечение (достоверность 23) [341CE054] Копирование... OK
Все треки извлечены точно
Ошибок не произошло
Конец отчёта

.cue-файл:

REM GENRE JazzREM DATE 2002REM DISCID 9B107A0CREM COMMENT "ExactAudioCopy v1.0b1"PERFORMER "Diana Krall"TITLE "Live in Paris"FILE "01. I Love Being Here With You.wav" WAVE TRACK 01 AUDIO TITLE "I Love Being Here With You" PERFORMER "Diana Krall" INDEX 01 00:00:00FILE "02. Let's Fall In Love.wav" WAVE TRACK 02 AUDIO TITLE "Let's Fall In Love" PERFORMER "Diana Krall" INDEX 01 00:00:00FILE "03. 'Deed I Do.wav" WAVE TRACK 03 AUDIO TITLE "'Deed I Do" PERFORMER "Diana Krall" INDEX 01 00:00:00FILE "04. The Look Of Love.wav" WAVE TRACK 04 AUDIO TITLE "The Look Of Love" PERFORMER "Diana Krall" INDEX 01 00:00:00FILE "05. East Of The Sun (And West Of The Moon).wav" WAVE TRACK 05 AUDIO TITLE "East Of The Sun (And West Of The Moon)" PERFORMER "Diana Krall" INDEX 01 00:00:00FILE "06. I've Got You Under My Skin.wav" WAVE TRACK 06 AUDIO TITLE "I've Got You Under My Skin" PERFORMER "Diana Krall" INDEX 01 00:00:00FILE "07. Devil May Care.wav" WAVE TRACK 07 AUDIO TITLE "Devil May Care" PERFORMER "Diana Krall" INDEX 01 00:00:00FILE "08. Maybe You'll Be There.wav" WAVE TRACK 08 AUDIO TITLE "Maybe You'll Be There" PERFORMER "Diana Krall" INDEX 01 00:00:00FILE "09. 'S Wonderful.wav" WAVE TRACK 09 AUDIO TITLE "'S Wonderful" PERFORMER "Diana Krall" INDEX 01 00:00:00FILE "10. Fly Me To The Moon.wav" WAVE TRACK 10 AUDIO TITLE "Fly Me To The Moon" PERFORMER "Diana Krall" INDEX 01 00:00:00FILE "11. A Case Of You.wav" WAVE TRACK 11 AUDIO TITLE "A Case Of You" PERFORMER "Diana Krall" INDEX 01 00:00:00 TRACK 12 AUDIO TITLE "Just The Way You Are" PERFORMER "Diana Krall" INDEX 00 06:49:62FILE "12. Just The Way You Are.wav" WAVE INDEX 01 00:00:00

2004 - The Girl In The Other Room

Аудио кодек: FLAC
Тип рипа: tracks +.cue + covers
Битрейт аудио: lossless
Продолжительность: 55:38
Трэклист:
1. Stop This World 3:59
2. The Girl In The Other Room 4:05
3. Temptation 4:28
4. Almost Blue 4:04
5. I've Changed My Address 4:47
6. Love Me Like A Man 5:49
7. I'm Pulling Through 4:03
8. Black Crow 4:48
9. Narrow Daylight 3:32
10. Abandoned Masquerade 5:11
11. I'm Coming Through 5:07
12. Departure Bay 5:40
Diana Krall - piano, vocals
Christian McBride - bass (tracks: 1, 3, 4, 7 to 12)
John Clayton - bass (tracks: 2, 5, 6)
Jeff Hamilton - drums (tracks: 2, 5, 6)
Peter Erskine - drums (tracks: 1, 4, 7 to 12)
Terri Lyne Carrington - drums (track 3)
Anthony Wilson - guitar
Neil Larsen - organ (Hammond) (track 3)

Featuring original songs co-written with Elvis Costello, plus brilliant versions
of tunes by Mose Allison, Elvis Costello, Joni Mitchell and Tom Waits.
Recorded and mixed by Al Schmitt at Capitol Studios, Hollywood and Avatar Studio, New York.
Original releases:
2004, UK, Verve Records (Catalog No.: 0602498622469)
2004, US, Verve Records (Catalog No.: B000182612)
2004, US, Verve Records / BMG Direct Marketing, Inc. (Catalog No.: B0001826-12 / D152765)
2004, Canada, Verve Records (Catalog No.: VERW33682)
2004, Japan, Verve Records (Catalog No.: UCCV-1057)
2004, UK, Verve Records (Special Edition, Catalog No.: 9862063)
-Собственный рип с фирменного диска из личной коллекции

Отчёт EAC:

Exact Audio Copy V1.0 beta 1 from 15. November 2010
Отчёт EAC об извлечении, выполненном 4. апреля 2012, 22:18
Diana Krall / The Girl In The Other Room
Дисковод: HL-DT-STDVDRAM GT32N Adapter: 1 ID: 0
Режим чтения : ДостоверностьИспользование точного потока : ДаОтключение кэша аудио : ДаИспользование указателей C2 : Нет
Коррекция смещения при чтении : 103Способность читать области Lead-in и Lead-out : НетЗаполнение пропущенных сэмплов тишиной : ДаУдаление блоков с тишиной в начале и конце : НетПри вычислениях CRC использовались нулевые сэмплы : ДаИнтерфейс : Встроенный Win32-интерфейс для Win NT/2000Обработка зазоров : Добавлено к предыдущему треку
Выходной формат : Пользовательский кодировщикВыбранный битрейт : 768 kBit/sКачество : ВысокийДобавление ID3-тега : НетУтилита сжатия : C:\Program Files (x86)\Exact Audio Copy\Flac\flac.exeДополнительные параметры : -8 -V %s
TOC извлечённого CD
Трек | Старт | Длительность | Начальный сектор | Конечный сектор --------------------------------------------------------------------- 1 | 0:00.00 | 3:59.14 | 0 | 17938 2 | 3:59.14 | 4:05.17 | 17939 | 36330 3 | 8:04.31 | 4:27.54 | 36331 | 56409 4 | 12:32.10 | 4:04.45 | 56410 | 74754 5 | 16:36.55 | 4:47.39 | 74755 | 96318 6 | 21:24.19 | 5:49.20 | 96319 | 122513 7 | 27:13.39 | 4:02.49 | 122514 | 140712 8 | 31:16.13 | 4:49.10 | 140713 | 162397 9 | 36:05.23 | 3:32.35 | 162398 | 178332 10 | 39:37.58 | 5:11.11 | 178333 | 201668 11 | 44:48.69 | 5:07.67 | 201669 | 224760 12 | 49:56.61 | 5:39.38 | 224761 | 250223
Трек 1
Имя файла C:\Users\Admin\Music\Diana Krall - дискография\2004 - The Girl In The Other Room [FLAC]\01. Stop This World.wav
Длина предзазора 0:00:02.00
Пиковый уровень 100.0 % Скорость извлечения 1.2 X Качество трека 100.0 % CRC теста BC8C3D24 CRC копии BC8C3D24 Точное извлечение (достоверность 81) [BC23D3F9] Копирование... OK
Трек 2
Имя файла C:\Users\Admin\Music\Diana Krall - дискография\2004 - The Girl In The Other Room [FLAC]\02. The Girl In The Other Room.wav
Длина предзазора 0:00:00.58
Пиковый уровень 100.0 % Скорость извлечения 1.4 X Качество трека 100.0 % CRC теста F07B2BE7 CRC копии F07B2BE7 Точное извлечение (достоверность 81) [1A145814] Копирование... OK
Трек 3
Имя файла C:\Users\Admin\Music\Diana Krall - дискография\2004 - The Girl In The Other Room [FLAC]\03. Temptation.wav
Длина предзазора 0:00:01.02
Пиковый уровень 100.0 % Скорость извлечения 1.5 X Качество трека 100.0 % CRC теста CB619078 CRC копии CB619078 Точное извлечение (достоверность 81) [B6357395] Копирование... OK
Трек 4
Имя файла C:\Users\Admin\Music\Diana Krall - дискография\2004 - The Girl In The Other Room [FLAC]\04. Almost Blue.wav
Пиковый уровень 100.0 % Скорость извлечения 1.6 X Качество трека 100.0 % CRC теста 07FEC778 CRC копии 07FEC778 Точное извлечение (достоверность 82) [9A2C0FDE] Копирование... OK
Трек 5
Имя файла C:\Users\Admin\Music\Diana Krall - дискография\2004 - The Girl In The Other Room [FLAC]\05. I've Changed My Address.wav
Длина предзазора 0:00:01.18
Пиковый уровень 100.0 % Скорость извлечения 1.8 X Качество трека 100.0 % CRC теста 3E5F3A31 CRC копии 3E5F3A31 Точное извлечение (достоверность 82) [EF6B18B9] Копирование... OK
Трек 6
Имя файла C:\Users\Admin\Music\Diana Krall - дискография\2004 - The Girl In The Other Room [FLAC]\06. Love Me Like A Man.wav
Длина предзазора 0:00:01.26
Пиковый уровень 100.0 % Скорость извлечения 2.0 X Качество трека 100.0 % CRC теста 78EF397E CRC копии 78EF397E Точное извлечение (достоверность 82) [40F0CEA8] Копирование... OK
Трек 7
Имя файла C:\Users\Admin\Music\Diana Krall - дискография\2004 - The Girl In The Other Room [FLAC]\07. I'm Pulling Through.wav
Длина предзазора 0:00:00.30
Пиковый уровень 100.0 % Скорость извлечения 2.0 X Качество трека 100.0 % CRC теста DCABE496 CRC копии DCABE496 Точное извлечение (достоверность 81) [AED67588] Копирование... OK
Трек 8
Имя файла C:\Users\Admin\Music\Diana Krall - дискография\2004 - The Girl In The Other Room [FLAC]\08. Black Crow.wav
Длина предзазора 0:00:00.31
Пиковый уровень 100.0 % Скорость извлечения 2.1 X Качество трека 100.0 % CRC теста 39F4D30F CRC копии 39F4D30F Точное извлечение (достоверность 82) [D28A69D4] Копирование... OK
Трек 9
Имя файла C:\Users\Admin\Music\Diana Krall - дискография\2004 - The Girl In The Other Room [FLAC]\09. Narrow Daylight.wav
Длина предзазора 0:00:01.13
Пиковый уровень 100.0 % Скорость извлечения 2.1 X Качество трека 100.0 % CRC теста 4512D9C5 CRC копии 4512D9C5 Точное извлечение (достоверность 82) [D65E397B] Копирование... OK
Трек 10
Имя файла C:\Users\Admin\Music\Diana Krall - дискография\2004 - The Girl In The Other Room [FLAC]\10. Abandoned Masquerade.wav
Длина предзазора 0:00:00.69
Пиковый уровень 100.0 % Скорость извлечения 2.1 X Качество трека 99.9 % CRC теста 44FCCCD9 CRC копии 44FCCCD9 Точное извлечение (достоверность 81) [4FC2FA9E] Копирование... OK
Трек 11
Имя файла C:\Users\Admin\Music\Diana Krall - дискография\2004 - The Girl In The Other Room [FLAC]\11. I'm Coming Through.wav
Длина предзазора 0:00:00.24
Пиковый уровень 100.0 % Скорость извлечения 2.5 X Качество трека 100.0 % CRC теста B3AAFBD7 CRC копии B3AAFBD7 Точное извлечение (достоверность 81) [8D27D71A] Копирование... OK
Трек 12
Имя файла C:\Users\Admin\Music\Diana Krall - дискография\2004 - The Girl In The Other Room [FLAC]\12. Departure Bay.wav
Длина предзазора 0:00:01.01
Пиковый уровень 100.0 % Скорость извлечения 2.6 X Качество трека 100.0 % CRC теста 4A280D51 CRC копии 4A280D51 Точное извлечение (достоверность 81) [12A59AB2] Копирование... OK
Все треки извлечены точно
Ошибок не произошло
Конец отчёта

.cue-файл:

REM GENRE JazzREM DATE 2004REM DISCID CF0D080CREM COMMENT "ExactAudioCopy v1.0b1"PERFORMER "Diana Krall"TITLE "The Girl In The Other Room"FILE "01. Stop This World.wav" WAVE TRACK 01 AUDIO TITLE "Stop This World" PERFORMER "Diana Krall" FLAGS DCP INDEX 01 00:00:00 TRACK 02 AUDIO TITLE "The Girl In The Other Room" PERFORMER "Diana Krall" FLAGS DCP INDEX 00 03:58:31FILE "02. The Girl In The Other Room.wav" WAVE INDEX 01 00:00:00 TRACK 03 AUDIO TITLE "Temptation" PERFORMER "Diana Krall" FLAGS DCP INDEX 00 04:04:15FILE "03. Temptation.wav" WAVE INDEX 01 00:00:00FILE "04. Almost Blue.wav" WAVE TRACK 04 AUDIO TITLE "Almost Blue" PERFORMER "Diana Krall" FLAGS DCP INDEX 01 00:00:00 TRACK 05 AUDIO TITLE "I've Changed My Address" PERFORMER "Diana Krall" FLAGS DCP INDEX 00 04:03:27FILE "05. I've Changed My Address.wav" WAVE INDEX 01 00:00:00 TRACK 06 AUDIO TITLE "Love Me Like A Man" PERFORMER "Diana Krall" FLAGS DCP INDEX 00 04:46:13FILE "06. Love Me Like A Man.wav" WAVE INDEX 01 00:00:00 TRACK 07 AUDIO TITLE "I'm Pulling Through" PERFORMER "Diana Krall" FLAGS DCP INDEX 00 05:48:65FILE "07. I'm Pulling Through.wav" WAVE INDEX 01 00:00:00 TRACK 08 AUDIO TITLE "Black Crow" PERFORMER "Diana Krall" FLAGS DCP INDEX 00 04:02:18FILE "08. Black Crow.wav" WAVE INDEX 01 00:00:00 TRACK 09 AUDIO TITLE "Narrow Daylight" PERFORMER "Diana Krall" FLAGS DCP INDEX 00 04:47:72FILE "09. Narrow Daylight.wav" WAVE INDEX 01 00:00:00 TRACK 10 AUDIO TITLE "Abandoned Masquerade" PERFORMER "Diana Krall" FLAGS DCP INDEX 00 03:31:41FILE "10. Abandoned Masquerade.wav" WAVE INDEX 01 00:00:00 TRACK 11 AUDIO TITLE "I'm Coming Through" PERFORMER "Diana Krall" FLAGS DCP INDEX 00 05:10:62FILE "11. I'm Coming Through.wav" WAVE INDEX 01 00:00:00 TRACK 12 AUDIO TITLE "Departure Bay" PERFORMER "Diana Krall" FLAGS DCP INDEX 00 05:06:66FILE "12. Departure Bay.wav" WAVE INDEX 01 00:00:00

2005 - Christmas Songs ( Compilation )

Аудио кодек: FLAC
Тип рипа: tracks +.cue + covers
Битрейт аудио: lossless
Продолжительность: 44:42
Трэклист:
1. Jingle Bells 3:25
2. Let It Snow 4:01
3. The Christmas Song 4:23
4. Winter Wonderland 3:14
5. I'll Be Home For Christmas 3:07
6. Christmas Time Is Here 3:34
7. Santa Claus Is Coming To Town 2:53
8. Have Yourself A Merry Little Christmas 4:19
9. White Christmas 4:31
10. What Are You Doing New Year's Eve 4:09
11. Sleigh Ride 3:26
12. Count Your Blessings Instead Of Sheep 3:40
Diana Krall - piano, vocals
John Clayton - bass
Ben Wolfe - bass (tracks: 6, 8)
Robert Hurst - bass (track 12)
Jeff Hamilton - drums
Anthony Wilson - guitar
Russell Malone - guitar (tracks: 6, 8)
Jeff Clayton (3) - alto saxophone solo (track 2), flute solo (track 5)
Rickey Woodard - tenor saxophone solo (track 4)
Ira Nepus - trombone solo (track 2)
Gilbert Castellanos - trumpet solo (track 11)
George Bohanon - trombone solo (track 11)
Slefon Harris - vibraphone (vibes) (track 9)
Emil Richards - percussion (track 12)
Randy Waldman - keyboards (track 12)
Alan Broadbent - piano (track 12)
Tamir Hendelman - electric piano (Fender Rhodes) (track 10), piano (track 11)
Gerald Clayton - piano (track 7)
featuring The Clayton / Hamilton Jazz Orchestra, Jules Chaiken - orchestra contractor
Assa Drori - concertmaster

Recorded and Mixed at Capitol Studios, Hollywood, CA
Additional recording at Ocean Way Studios, Hollywood, CA,
Sony Music Studios, New York, NY and Schnee Studios, North Hollywood, CA
Original releases:
2005, US, Verve Records (Catalog No.: B0004717-02)
2005, Europe, Verve Records (Catalog No.: 0602498821213)
-Рип взят с Torrentc, за что большое спасибо Musicgate

Отчёт EAC:

EAC extraction logfile from 14. November 2007, 10:11 for CDDiana Krall / Christmas Songs
Used drive : Optiarc DVD RW AD-5170A Adapter: 1 ID: 0Read mode : Secure with NO C2, accurate stream, disable cacheRead offset correction : 48Overread into Lead-In and Lead-Out : No
Used output format : D:\tools\FLAC\flac.exe (User Defined Encoder) 128 kBit/s Additional command line options : -V -8 -T "artist=%a" -T "title=%t" -T "album=%g" -T "date=%y" -T "tracknumber=%n" -T "genre=%m" %s
Other options : Fill up missing offset samples with silence : Yes Delete leading and trailing silent blocks : No Native Win32 interface for Win NT & 2000
Track 1 Filename D:\0\Diana Krall - Christmas Songs (2005) [FLAC]\01 - Jingle Bells.wav
Pre-gap length 0:00:02.00
Peak level 99.7 % Track quality 100.0 % Test CRC 2EA9CF64 Copy CRC 2EA9CF64 Copy OK
Track 2 Filename D:\0\Diana Krall - Christmas Songs (2005) [FLAC]\02 - Let It Snow.wav
Peak level 99.7 % Track quality 100.0 % Test CRC D0D0A259 Copy CRC D0D0A259 Copy OK
Track 3 Filename D:\0\Diana Krall - Christmas Songs (2005) [FLAC]\03 - The Christmas Song.wav
Peak level 99.7 % Track quality 100.0 % Test CRC 21192278 Copy CRC 21192278 Copy OK
Track 4 Filename D:\0\Diana Krall - Christmas Songs (2005) [FLAC]\04 - Winter Wonderland.wav
Pre-gap length 0:00:00.25
Peak level 99.7 % Track quality 100.0 % Test CRC 02D93518 Copy CRC 02D93518 Copy OK
Track 5 Filename D:\0\Diana Krall - Christmas Songs (2005) [FLAC]\05 - I'll Be Home for Christmas.wav
Peak level 99.7 % Track quality 100.0 % Test CRC EE863454 Copy CRC EE863454 Copy OK
Track 6 Filename D:\0\Diana Krall - Christmas Songs (2005) [FLAC]\06 - Christmas Time Is Here.wav
Peak level 99.7 % Track quality 100.0 % Test CRC 9E8A3F6C Copy CRC 9E8A3F6C Copy OK
Track 7 Filename D:\0\Diana Krall - Christmas Songs (2005) [FLAC]\07 - Santa Claus Is Coming to Town.wav
Peak level 99.7 % Track quality 97.2 % Test CRC 222F7EF1 Copy CRC 222F7EF1 Copy OK
Track 8 Filename D:\0\Diana Krall - Christmas Songs (2005) [FLAC]\08 - Have Yourself a Merry Little Christmas.wav
Peak level 99.7 % Track quality 100.0 % Test CRC 0129263A Copy CRC 0129263A Copy OK
Track 9 Filename D:\0\Diana Krall - Christmas Songs (2005) [FLAC]\09 - White Christmas.wav
Pre-gap length 0:00:00.82
Peak level 99.7 % Track quality 99.9 % Test CRC C6CE06B5 Copy CRC C6CE06B5 Copy OK
Track 10 Filename D:\0\Diana Krall - Christmas Songs (2005) [FLAC]\10 - What Are You Doing New Year's Eve.wav
Pre-gap length 0:00:00.80
Peak level 99.7 % Track quality 100.0 % Test CRC 6DE0853F Copy CRC 6DE0853F Copy OK
Track 11 Filename D:\0\Diana Krall - Christmas Songs (2005) [FLAC]\11 - Sleigh Ride.wav
Peak level 99.7 % Track quality 100.0 % Test CRC 4309B361 Copy CRC 4309B361 Copy OK
Track 12 Filename D:\0\Diana Krall - Christmas Songs (2005) [FLAC]\12 - Count Your Blessings Instead of Sheep.wav
Pre-gap length 0:00:00.94
Peak level 99.7 % Track quality 99.9 % Test CRC FD46843A Copy CRC FD46843A Copy OK
No errors occured
End of status report

.cue-файл:

REM GENRE "Christian Pop; Christmas; Contemporary Jazz; Jazz Vocals; Jazz-"REM DATE 2005REM DISCID 8C0A810CREM COMMENT "ExactAudioCopy v0.95b4"PERFORMER "Diana Krall"TITLE "Christmas Songs"FILE "01 - Jingle Bells.wav" WAVE TRACK 01 AUDIO TITLE "Jingle Bells" PERFORMER "Diana Krall" INDEX 01 00:00:00FILE "02 - Let It Snow.wav" WAVE TRACK 02 AUDIO TITLE "Let It Snow" PERFORMER "Diana Krall" INDEX 01 00:00:00FILE "03 - The Christmas Song.wav" WAVE TRACK 03 AUDIO TITLE "The Christmas Song" PERFORMER "Diana Krall" INDEX 01 00:00:00 TRACK 04 AUDIO TITLE "Winter Wonderland" PERFORMER "Diana Krall" INDEX 00 04:23:40FILE "04 - Winter Wonderland.wav" WAVE INDEX 01 00:00:00FILE "05 - I'll Be Home for Christmas.wav" WAVE TRACK 05 AUDIO TITLE "I'll Be Home for Christmas" PERFORMER "Diana Krall" INDEX 01 00:00:00FILE "06 - Christmas Time Is Here.wav" WAVE TRACK 06 AUDIO TITLE "Christmas Time Is Here" PERFORMER "Diana Krall" INDEX 01 00:00:00FILE "07 - Santa Claus Is Coming to Town.wav" WAVE TRACK 07 AUDIO TITLE "Santa Claus Is Coming to Town" PERFORMER "Diana Krall" INDEX 01 00:00:00FILE "08 - Have Yourself a Merry Little Christmas.wav" WAVE TRACK 08 AUDIO TITLE "Have Yourself a Merry Little Christmas" PERFORMER "Diana Krall" INDEX 01 00:00:00 TRACK 09 AUDIO TITLE "White Christmas" PERFORMER "Diana Krall" INDEX 00 04:18:40FILE "09 - White Christmas.wav" WAVE INDEX 01 00:00:00 TRACK 10 AUDIO TITLE "What Are You Doing New Year's Eve" PERFORMER "Diana Krall" INDEX 00 04:31:13FILE "10 - What Are You Doing New Year's Eve.wav" WAVE INDEX 01 00:00:00FILE "11 - Sleigh Ride.wav" WAVE TRACK 11 AUDIO TITLE "Sleigh Ride" PERFORMER "Diana Krall" INDEX 01 00:00:00 TRACK 12 AUDIO TITLE "Count Your Blessings Instead of Sheep" PERFORMER "Diana Krall" INDEX 00 03:26:03FILE "12 - Count Your Blessings Instead of Sheep.wav" WAVE INDEX 01 00:00:00

2006 - From This Moment On

Аудио кодек: FLAC
Тип рипа: tracks +.cue + covers
Битрейт аудио: lossless
Продолжительность: 51:31
Трэклист:
1. It Could Happen To You 3:29
2. Isn't This A Lovely Day 6:07
3. How Insensitive 5:20
4. Exactly Like You 3:03
5. From This Moment On 3:24
6. I Was Doing Alright 5:11
7. Little Girl Blue 5:38
8. Day In Day Out 3:59
9. Willow Weep For Me 5:38
10. Come Dance With Me 4:23
11. It Was A Beautiful Day In August / You Can Depend On Me 5:17
12. The Boulevard Of Broken Dreams 5:35
Diana Krall - piano, vocals
John Clayton - bass (tracks: 4, 6, 7, 11, 12)
Jeff Hamilton - drums (tracks: 4, 6, 7, 11, 12)
Anthony Wilson - guitar, acoustic guitar (tracks: 3, 4, 6, 7, 11, 12)
Gerald Clayton - piano (tracks: 1, 5, 10)
Jeff Clayton (3) - alto saxophone solo (track 2), soprano saxophone solo (track 9)
Ira Nepus - trombone solo (track 2)
Terell Stafford - trumpet solo (tracks: 2, 5, 9, 10)
Gil Castellanous - trumpet solo (track 5)
Tamir Hendelman - piano (track 9)
Rickey Woodard - tenor saxophone solo (tracks: 9, 10)
featuring The Clayton / Hamilton Jazz Orchestra, John Clayton - conductor (tracks: 1 to 3, 5, 8 to 10)

Original releases:
2006, Australia, Verve Records (Catalog No.: 1705042)
2006, US, Verve Records (Catalog No.: B0007323-02 / B0007530-02)
2006, Europe, Verve Records (Catalog No.: 0602517050426)
2007, Russia, The Verve Music Group (Catalog No.: 46050 2600893)
-Рип взят с другого трекера

Отчёт EAC:

Exact Audio Copy V1.0 beta 1 from 15. November 2010
EAC extraction logfile from 15. December 2010, 23:40
Diana Krall / From This Moment On
Used drive : PLEXTOR DVDR PX-760A Adapter: 0 ID: 1
Read mode : SecureUtilize accurate stream : YesDefeat audio cache : YesMake use of C2 pointers : No
Read offset correction : 30Overread into Lead-In and Lead-Out : YesFill up missing offset samples with silence : YesDelete leading and trailing silent blocks : NoNull samples used in CRC calculations : YesUsed interface : Native Win32 interface for Win NT & 2000Gap handling : Appended to previous track
Used output format : User Defined EncoderSelected bitrate : 320 kBit/sQuality : HighAdd ID3 tag : NoCommand line compressor : C:\Program Files (x86)\Exact Audio Copy\FLAC\FLAC.EXEAdditional command line options : -V -8 -T "artist=%a" -T "title=%t" -T "album=%g" -T "date=%y" -T "tracknumber=%n" -T "genre=%m" %s
TOC of the extracted CD
Track | Start | Length | Start sector | End sector --------------------------------------------------------- 1 | 0:00.00 | 3:28.32 | 0 | 15631 2 | 3:28.32 | 6:07.68 | 15632 | 43224 3 | 9:36.25 | 5:20.28 | 43225 | 67252 4 | 14:56.53 | 3:02.30 | 67253 | 80932 5 | 17:59.08 | 3:23.49 | 80933 | 96206 6 | 21:22.57 | 5:12.61 | 96207 | 119667 7 | 26:35.43 | 5:39.08 | 119668 | 145100 8 | 32:14.51 | 4:01.03 | 145101 | 163178 9 | 36:15.54 | 5:39.57 | 163179 | 188660 10 | 41:55.36 | 4:24.02 | 188661 | 208462 11 | 46:19.38 | 5:20.35 | 208463 | 232497 12 | 51:39.73 | 5:34.15 | 232498 | 257562
Track 1
Filename D:\eac\Diana Krall - From This Moment On (2006) FLAC\01 - It Could Happen to You.wav
Pre-gap length 0:00:02.00
Peak level 99.7 % Extraction speed 1.0 X Track quality 100.0 % Test CRC 4EB14C5C Copy CRC 4EB14C5C Accurately ripped (confidence 4) [B7150720] Copy OK
Track 2
Filename D:\eac\Diana Krall - From This Moment On (2006) FLAC\02 - Isn't This A Lovely Day.wav
Pre-gap length 0:00:00.12
Peak level 99.7 % Extraction speed 1.0 X Track quality 99.9 % Test CRC 051A138E Copy CRC 051A138E Accurately ripped (confidence 4) [A08253B1] Copy OK
Track 3
Filename D:\eac\Diana Krall - From This Moment On (2006) FLAC\03 - How Insensitive.wav
Pre-gap length 0:00:01.09
Peak level 99.7 % Extraction speed 2.2 X Track quality 100.0 % Test CRC 648F3C6D Copy CRC 648F3C6D Accurately ripped (confidence 4) [D27F7FB8] Copy OK
Track 4
Filename D:\eac\Diana Krall - From This Moment On (2006) FLAC\04 - Exactly Like You.wav
Pre-gap length 0:00:01.08
Peak level 99.7 % Extraction speed 2.1 X Track quality 100.0 % Test CRC 31FCAD2B Copy CRC 31FCAD2B Accurately ripped (confidence 4) [2366CDC9] Copy OK
Track 5
Filename D:\eac\Diana Krall - From This Moment On (2006) FLAC\05 - From This Moment On.wav
Peak level 99.7 % Extraction speed 2.1 X Track quality 100.0 % Test CRC 02CA9D4A Copy CRC 02CA9D4A Accurately ripped (confidence 4) [97CB34C2] Copy OK
Track 6
Filename D:\eac\Diana Krall - From This Moment On (2006) FLAC\06 - I Was Doing Alright.wav
Pre-gap length 0:00:00.67
Peak level 99.7 % Extraction speed 1.7 X Track quality 99.9 % Test CRC 95524744 Copy CRC 95524744 Accurately ripped (confidence 4) [9B919F34] Copy OK
Track 7
Filename D:\eac\Diana Krall - From This Moment On (2006) FLAC\07 - Little Girl Blue.wav
Pre-gap length 0:00:01.57
Peak level 99.7 % Extraction speed 1.1 X Track quality 100.0 % Test CRC 1775A740 Copy CRC 1775A740 Accurately ripped (confidence 4) [9A2681EE] Copy OK
Track 8
Filename D:\eac\Diana Krall - From This Moment On (2006) FLAC\08 - Day in Day Out.wav
Pre-gap length 0:00:01.26
Peak level 99.7 % Extraction speed 1.0 X Track quality 100.0 % Test CRC 69BC7AE1 Copy CRC 69BC7AE1 Accurately ripped (confidence 4) [EC0BE7AC] Copy OK
Track 9
Filename D:\eac\Diana Krall - From This Moment On (2006) FLAC\09 - Willow Weep for Me.wav
Pre-gap length 0:00:02.06
Peak level 99.7 % Extraction speed 1.1 X Track quality 100.0 % Test CRC 96AFA9B1 Copy CRC 96AFA9B1 Accurately ripped (confidence 4) [F67D3ADA] Copy OK
Track 10
Filename D:\eac\Diana Krall - From This Moment On (2006) FLAC\10 - Come Dance With Me.wav
Pre-gap length 0:00:02.01
Peak level 99.7 % Extraction speed 1.0 X Track quality 100.0 % Test CRC 361F4FAE Copy CRC 361F4FAE Accurately ripped (confidence 4) [DCE77F53] Copy OK
Track 11
Filename D:\eac\Diana Krall - From This Moment On (2006) FLAC\11 - It Was a Beautiful Day in August , You Can Depend on Me.wav
Pre-gap length 0:00:01.48
Peak level 99.7 % Extraction speed 0.9 X Track quality 99.9 % Test CRC 748C9183 Copy CRC 748C9183 Accurately ripped (confidence 4) [2E278452] Copy OK
Track 12
Filename D:\eac\Diana Krall - From This Moment On (2006) FLAC\12 - The Boulevard of Broken Dreams.wav
Pre-gap length 0:00:03.49
Peak level 99.7 % Extraction speed 1.0 X Track quality 100.0 % Test CRC BCC040BF Copy CRC BCC040BF Accurately ripped (confidence 4) [5AE18F7A] Copy OK
All tracks accurately ripped
No errors occurred
End of status report

.cue-файл:

REM GENRE JazzREM DATE 2006REM DISCID AB0D6A0CREM COMMENT "ExactAudioCopy v1.0b1"PERFORMER "Diana Krall"TITLE "From This Moment On"FILE "Diana Krall - From This Moment On (2006) FLAC\01 - It Could Happen to You.wav" WAVE TRACK 01 AUDIO TITLE "It Could Happen to You" PERFORMER "Diana Krall" INDEX 01 00:00:00 TRACK 02 AUDIO TITLE "Isn't This A Lovely Day" PERFORMER "Diana Krall" INDEX 00 03:28:20FILE "Diana Krall - From This Moment On (2006) FLAC\02 - Isn't This A Lovely Day.wav" WAVE INDEX 01 00:00:00 TRACK 03 AUDIO TITLE "How Insensitive" PERFORMER "Diana Krall" INDEX 00 06:06:59FILE "Diana Krall - From This Moment On (2006) FLAC\03 - How Insensitive.wav" WAVE INDEX 01 00:00:00 TRACK 04 AUDIO TITLE "Exactly Like You" PERFORMER "Diana Krall" INDEX 00 05:19:20FILE "Diana Krall - From This Moment On (2006) FLAC\04 - Exactly Like You.wav" WAVE INDEX 01 00:00:00FILE "Diana Krall - From This Moment On (2006) FLAC\05 - From This Moment On.wav" WAVE TRACK 05 AUDIO TITLE "From This Moment On" PERFORMER "Diana Krall" INDEX 01 00:00:00 TRACK 06 AUDIO TITLE "I Was Doing Alright" PERFORMER "Diana Krall" INDEX 00 03:22:57FILE "Diana Krall - From This Moment On (2006) FLAC\06 - I Was Doing Alright.wav" WAVE INDEX 01 00:00:00 TRACK 07 AUDIO TITLE "Little Girl Blue" PERFORMER "Diana Krall" INDEX 00 05:11:04FILE "Diana Krall - From This Moment On (2006) FLAC\07 - Little Girl Blue.wav" WAVE INDEX 01 00:00:00 TRACK 08 AUDIO TITLE "Day in Day Out" PERFORMER "Diana Krall" INDEX 00 05:37:57FILE "Diana Krall - From This Moment On (2006) FLAC\08 - Day in Day Out.wav" WAVE INDEX 01 00:00:00 TRACK 09 AUDIO TITLE "Willow Weep for Me" PERFORMER "Diana Krall" INDEX 00 03:58:72FILE "Diana Krall - From This Moment On (2006) FLAC\09 - Willow Weep for Me.wav" WAVE INDEX 01 00:00:00 TRACK 10 AUDIO TITLE "Come Dance With Me" PERFORMER "Diana Krall" INDEX 00 05:37:56FILE "Diana Krall - From This Moment On (2006) FLAC\10 - Come Dance With Me.wav" WAVE INDEX 01 00:00:00 TRACK 11 AUDIO TITLE "It Was a Beautiful Day in August / You Can Depend on Me" PERFORMER "Diana Krall" INDEX 00 04:22:29FILE "Diana Krall - From This Moment On (2006) FLAC\11 - It Was a Beautiful Day in August , You Can Depend on Me.wav" WAVE INDEX 01 00:00:00 TRACK 12 AUDIO TITLE "The Boulevard of Broken Dreams" PERFORMER "Diana Krall" INDEX 00 05:16:61FILE "Diana Krall - From This Moment On (2006) FLAC\12 - The Boulevard of Broken Dreams.wav" WAVE INDEX 01 00:00:00

2007 - The Very Best Of Diana Krall ( Compilation )

Аудио кодек: FLAC
Тип рипа: tracks +.cue + covers
Битрейт аудио: lossless
Продолжительность: 01:15:25
Трэклист:
1. 'S Wonderful 4:26
2. Peel Me A Grape 5:49
3. Pick Yourself Up 3:01
4. Frim Fram Sauce 5:00
5. You Go To My Head 6:46
6. Let's Fall In Love 4:18
7. The Look Of Love 4:41
8. East Of The Sun ( And West Of The Moon ) 5:45
9. I've Got You Under My Skin 6:08
10. All Or Nothing At All 4:32
11. Only the Lonely 4:16
12. Let's Face The Music And Dance 5:17
13. The Heart Of Saturday Night 4:05
14. Little Girl Blue 5:38
15. Fly Me To The Moon 5:43
Diana Krall - piano, vocals
Christian McBride - bass (tracks: 1, 2, 5, 7, 10, 11)
John Clayton - bass (tracks: 3, 6, 8, 12 to 15)
Paul Keller - bass (track 4)
Ben Wolfe - bass (track 9)
Jeff Hamilton - drums (tracks: 3, 6, 8, 12 to 15)
Peter Erskine - drums (tracks: 1, 5, 7, 11)
Lewis Nash - drums (track 9)
Russell Malone - guitar (tracks: 2 to 6, 9 to 12)
Anthony Wilson - guitar (tracks: 8, 13 to 15)
Romero Lubambo - guitar (track 7)
Dori Caymmi - guitar (track 1)
Larry Bunker - vibes (tracks: 6, 9)
Luis Conte - percussion (track 7)
London Symphony Orchestra, arranged and conducted by Claus Ogerman (tracks: 5, 7, 11)
Los Angeles Session Orchestra, arranged and conducted by Claus Ogerman (track 1)

Этот альбом Дайана Крол посвятила своему отцу.
Recorded & Mixt by Al Shmitt / Mastered by Doug Sax
Original releases:
2007, US, Verve Records (Catalog No.: 0602517399686 / B0009412-02)
2007, Europe, Verve Records (Deluxe Edition with Bonus DVD, Catalog No.: 0602517415928)
2007, Europe, Verve Records (Catalog No.: 0602517438095)
-Собственный рип с фирменного диска из личной коллекции

Отчёт EAC:

Exact Audio Copy V1.0 beta 1 from 15. November 2010
Отчёт EAC об извлечении, выполненном 5. апреля 2012, 13:39
Diana Krall / The Very Best Of Diana Krall
Дисковод: HL-DT-STDVDRAM GT32N Adapter: 1 ID: 0
Режим чтения : ДостоверностьИспользование точного потока : ДаОтключение кэша аудио : ДаИспользование указателей C2 : Нет
Коррекция смещения при чтении : 103Способность читать области Lead-in и Lead-out : НетЗаполнение пропущенных сэмплов тишиной : ДаУдаление блоков с тишиной в начале и конце : НетПри вычислениях CRC использовались нулевые сэмплы : ДаИнтерфейс : Встроенный Win32-интерфейс для Win NT/2000Обработка зазоров : Добавлено к предыдущему треку
Выходной формат : Пользовательский кодировщикВыбранный битрейт : 768 kBit/sКачество : ВысокийДобавление ID3-тега : НетУтилита сжатия : C:\Program Files (x86)\Exact Audio Copy\Flac\flac.exeДополнительные параметры : -8 -V %s
TOC извлечённого CD
Трек | Старт | Длительность | Начальный сектор | Конечный сектор --------------------------------------------------------------------- 1 | 0:00.00 | 4:26.08 | 0 | 19957 2 | 4:26.08 | 5:49.58 | 19958 | 46190 3 | 10:15.66 | 3:01.13 | 46191 | 59778 4 | 13:17.04 | 5:00.54 | 59779 | 82332 5 | 18:17.58 | 6:46.45 | 82333 | 112827 6 | 25:04.28 | 4:18.67 | 112828 | 132244 7 | 29:23.20 | 4:41.07 | 132245 | 153326 8 | 34:04.27 | 5:45.74 | 153327 | 179275 9 | 39:50.26 | 6:08.48 | 179276 | 206923 10 | 45:58.74 | 4:32.38 | 206924 | 227361 11 | 50:31.37 | 4:16.32 | 227362 | 246593 12 | 54:47.69 | 5:17.35 | 246594 | 270403 13 | 60:05.29 | 4:05.73 | 270404 | 288851 14 | 64:11.27 | 5:38.20 | 288852 | 314221 15 | 69:49.47 | 5:43.40 | 314222 | 339986
Трек 1
Имя файла C:\Users\Admin\Music\Diana Krall - дискография\2007 - The Very Best Of Diana Krall ( Compilation ) [FLAC]\01. 'S Wonderful.wav
Длина предзазора 0:00:02.00
Пиковый уровень 99.7 % Скорость извлечения 1.2 X Качество трека 100.0 % CRC теста 8A838685 CRC копии 8A838685 Точное извлечение (достоверность 46) [44A5E1B8] Копирование... OK
Трек 2
Имя файла C:\Users\Admin\Music\Diana Krall - дискография\2007 - The Very Best Of Diana Krall ( Compilation ) [FLAC]\02. Peel Me A Grape.wav
Длина предзазора 0:00:01.41
Пиковый уровень 99.7 % Скорость извлечения 1.4 X Качество трека 100.0 % CRC теста F02B8414 CRC копии F02B8414 Точное извлечение (достоверность 45) [9DD663BF] Копирование... OK
Трек 3
Имя файла C:\Users\Admin\Music\Diana Krall - дискография\2007 - The Very Best Of Diana Krall ( Compilation ) [FLAC]\03. Pick Yourself Up.wav
Пиковый уровень 99.7 % Скорость извлечения 1.4 X Качество трека 100.0 % CRC теста 4B10BC4E CRC копии 4B10BC4E Точное извлечение (достоверность 46) [B84DEE89] Копирование... OK
Трек 4
Имя файла C:\Users\Admin\Music\Diana Krall - дискография\2007 - The Very Best Of Diana Krall ( Compilation ) [FLAC]\04. Frim Fram Sauce.wav
Пиковый уровень 99.7 % Скорость извлечения 1.6 X Качество трека 100.0 % CRC теста F97B4902 CRC копии F97B4902 Точное извлечение (достоверность 46) [8347D220] Копирование... OK
Трек 5
Имя файла C:\Users\Admin\Music\Diana Krall - дискография\2007 - The Very Best Of Diana Krall ( Compilation ) [FLAC]\05. You Go To My Head.wav
Длина предзазора 0:00:00.19
Пиковый уровень 99.7 % Скорость извлечения 1.8 X Качество трека 100.0 % CRC теста 0C3AE198 CRC копии 0C3AE198 Точное извлечение (достоверность 45) [BE41956F] Копирование... OK
Трек 6
Имя файла C:\Users\Admin\Music\Diana Krall - дискография\2007 - The Very Best Of Diana Krall ( Compilation ) [FLAC]\06. Let's Fall In Love.wav
Длина предзазора 0:00:00.71
Пиковый уровень 99.7 % Скорость извлечения 1.9 X Качество трека 100.0 % CRC теста 12B535E7 CRC копии 12B535E7 Точное извлечение (достоверность 45) [91FBA30B] Копирование... OK
Трек 7
Имя файла C:\Users\Admin\Music\Diana Krall - дискография\2007 - The Very Best Of Diana Krall ( Compilation ) [FLAC]\07. The Look Of Love.wav
Длина предзазора 0:00:00.02
Пиковый уровень 99.7 % Скорость извлечения 2.0 X Качество трека 100.0 % CRC теста 7F591297 CRC копии 7F591297 Точное извлечение (достоверность 45) [D990B65C] Копирование... OK
Трек 8
Имя файла C:\Users\Admin\Music\Diana Krall - дискография\2007 - The Very Best Of Diana Krall ( Compilation ) [FLAC]\08. East Of The Sun (And West Of The Moon).wav
Пиковый уровень 99.7 % Скорость извлечения 1.9 X Качество трека 99.9 % CRC теста 193507EF CRC копии 193507EF Точное извлечение (достоверность 43) [11CAFBF4] Копирование... OK
Трек 9
Имя файла C:\Users\Admin\Music\Diana Krall - дискография\2007 - The Very Best Of Diana Krall ( Compilation ) [FLAC]\09. I've Got You Under My Skin.wav
Длина предзазора 0:00:01.48
Пиковый уровень 99.7 % Скорость извлечения 2.3 X Качество трека 100.0 % CRC теста CCF53787 CRC копии CCF53787 Точное извлечение (достоверность 45) [1EBFDAD8] Копирование... OK
Трек 10
Имя файла C:\Users\Admin\Music\Diana Krall - дискография\2007 - The Very Best Of Diana Krall ( Compilation ) [FLAC]\10. All Or Nothing At All.wav
Длина предзазора 0:00:00.68
Пиковый уровень 99.7 % Скорость извлечения 2.3 X Качество трека 100.0 % CRC теста 00DF896A CRC копии 00DF896A Точное извлечение (достоверность 45) [9FCC7152] Копирование... OK
Трек 11
Имя файла C:\Users\Admin\Music\Diana Krall - дискография\2007 - The Very Best Of Diana Krall ( Compilation ) [FLAC]\11. Only The Lonely.wav
Длина предзазора 0:00:01.14
Пиковый уровень 99.7 % Скорость извлечения 2.4 X Качество трека 100.0 % CRC теста D5D7ABE6 CRC копии D5D7ABE6 Точное извлечение (достоверность 45) [144963A1] Копирование... OK
Трек 12
Имя файла C:\Users\Admin\Music\Diana Krall - дискография\2007 - The Very Best Of Diana Krall ( Compilation ) [FLAC]\12. Let's Face The Music And Dance.wav
Длина предзазора 0:00:00.55
Пиковый уровень 99.7 % Скорость извлечения 2.2 X Качество трека 99.9 % CRC теста 982AEF8B CRC копии 982AEF8B Точное извлечение (достоверность 46) [837A6409] Копирование... OK
Трек 13
Имя файла C:\Users\Admin\Music\Diana Krall - дискография\2007 - The Very Best Of Diana Krall ( Compilation ) [FLAC]\13. The Heart Of Saturday Night.wav
Длина предзазора 0:00:00.08
Пиковый уровень 99.7 % Скорость извлечения 2.4 X Качество трека 100.0 % CRC теста 81790EF3 CRC копии 81790EF3 Точное извлечение (достоверность 47) [B021C258] Копирование... OK
Трек 14
Имя файла C:\Users\Admin\Music\Diana Krall - дискография\2007 - The Very Best Of Diana Krall ( Compilation ) [FLAC]\14. Little Girl Blue.wav
Длина предзазора 0:00:01.58
Пиковый уровень 99.7 % Скорость извлечения 2.6 X Качество трека 100.0 % CRC теста 7FCB5ED0 CRC копии 7FCB5ED0 Точное извлечение (достоверность 44) [A3AEF19B] Копирование... OK
Трек 15
Имя файла C:\Users\Admin\Music\Diana Krall - дискография\2007 - The Very Best Of Diana Krall ( Compilation ) [FLAC]\15. Fly Me To The Moon.wav
Длина предзазора 0:00:00.39
Пиковый уровень 99.7 % Скорость извлечения 2.7 X Качество трека 100.0 % CRC теста CC46CD31 CRC копии CC46CD31 Точное извлечение (достоверность 47) [76F8C633] Копирование... OK
Все треки извлечены точно
Ошибок не произошло
Конец отчёта

.cue-файл:

REM GENRE JazzREM DATE 2007REM DISCID E711B50FREM COMMENT "ExactAudioCopy v1.0b1"PERFORMER "Diana Krall"TITLE "The Very Best Of Diana Krall"FILE "01. 'S Wonderful.wav" WAVE TRACK 01 AUDIO TITLE "'S Wonderful" PERFORMER "Diana Krall" INDEX 01 00:00:00 TRACK 02 AUDIO TITLE "Peel Me A Grape" PERFORMER "Diana Krall" INDEX 00 04:24:42FILE "02. Peel Me A Grape.wav" WAVE INDEX 01 00:00:00FILE "03. Pick Yourself Up.wav" WAVE TRACK 03 AUDIO TITLE "Pick Yourself Up" PERFORMER "Diana Krall" INDEX 01 00:00:00FILE "04. Frim Fram Sauce.wav" WAVE TRACK 04 AUDIO TITLE "Frim Fram Sauce" PERFORMER "Diana Krall" INDEX 01 00:00:00 TRACK 05 AUDIO TITLE "You Go To My Head" PERFORMER "Diana Krall" INDEX 00 05:00:35FILE "05. You Go To My Head.wav" WAVE INDEX 01 00:00:00 TRACK 06 AUDIO TITLE "Let's Fall In Love" PERFORMER "Diana Krall" INDEX 00 06:45:49FILE "06. Let's Fall In Love.wav" WAVE INDEX 01 00:00:00 TRACK 07 AUDIO TITLE "The Look Of Love" PERFORMER "Diana Krall" INDEX 00 04:18:65FILE "07. The Look Of Love.wav" WAVE INDEX 01 00:00:00FILE "08. East Of The Sun (And West Of The Moon).wav" WAVE TRACK 08 AUDIO TITLE "East Of The Sun (And West Of The Moon)" PERFORMER "Diana Krall" INDEX 01 00:00:00 TRACK 09 AUDIO TITLE "I've Got You Under My Skin" PERFORMER "Diana Krall" INDEX 00 05:44:26FILE "09. I've Got You Under My Skin.wav" WAVE INDEX 01 00:00:00 TRACK 10 AUDIO TITLE "All Or Nothing At All" PERFORMER "Diana Krall" INDEX 00 06:07:55FILE "10. All Or Nothing At All.wav" WAVE INDEX 01 00:00:00 TRACK 11 AUDIO TITLE "Only The Lonely" PERFORMER "Diana Krall" INDEX 00 04:31:24FILE "11. Only The Lonely.wav" WAVE INDEX 01 00:00:00 TRACK 12 AUDIO TITLE "Let's Face The Music And Dance" PERFORMER "Diana Krall" INDEX 00 04:15:52FILE "12. Let's Face The Music And Dance.wav" WAVE INDEX 01 00:00:00 TRACK 13 AUDIO TITLE "The Heart Of Saturday Night" PERFORMER "Diana Krall" INDEX 00 05:17:27FILE "13. The Heart Of Saturday Night.wav" WAVE INDEX 01 00:00:00 TRACK 14 AUDIO TITLE "Little Girl Blue" PERFORMER "Diana Krall" INDEX 00 04:04:15FILE "14. Little Girl Blue.wav" WAVE INDEX 01 00:00:00 TRACK 15 AUDIO TITLE "Fly Me To The Moon" PERFORMER "Diana Krall" INDEX 00 05:37:56FILE "15. Fly Me To The Moon.wav" WAVE INDEX 01 00:00:00

2009 - Quiet Nights

Аудио кодек: FLAC
Тип рипа: tracks +.cue + covers
Битрейт аудио: lossless
Продолжительность: 55:04
Трэклист:
1. Where Or When 4:10
2. Too Marvelous For Words 4:06
3. I've Grown Accustomed To Your Face 4:48
4. The Boy From Ipanema 4:55
5. Walk On By 5:03
6. You're My Thrill 5:47
7. Este Seu Olhar 2:46
8. So Nice 3:53
9. Quiet Nights 4:46
10. Guess I'll Hang My Tears Out To Dry 5:00
Bonus Tracks:
11. How Can You Mend A Broken Heart 4:31
12. Every Time We Say Goodbye 5:19
Diana Krall - piano, vocals
John Clayton - bass
Jeff Hamilton - drums
Anthony Wilson - guitar
Paulinho Da Costa - percussion

Original releases:
2009, Canada, Verve Records (Catalog No.: B001243302)
2009, Czech Republic, Verve Records (Catalog No.: 0602517981102)
2009, Europe, Verve Records (Catalog No.: 0602517981256)
2009, Europe, Verve Records (Deluxe Edition with Bonus DVD, Catalog No.: 0602527179773)
-Собственный рип с фирменного диска из личной коллекции

Отчёт EAC:

Exact Audio Copy V1.0 beta 1 from 15. November 2010
Отчёт EAC об извлечении, выполненном 5. апреля 2012, 22:47
Diana Krall / Quiet Nights
Дисковод: HL-DT-STDVDRAM GT32N Adapter: 1 ID: 0
Режим чтения : ДостоверностьИспользование точного потока : ДаОтключение кэша аудио : ДаИспользование указателей C2 : Нет
Коррекция смещения при чтении : 103Способность читать области Lead-in и Lead-out : НетЗаполнение пропущенных сэмплов тишиной : ДаУдаление блоков с тишиной в начале и конце : НетПри вычислениях CRC использовались нулевые сэмплы : ДаИнтерфейс : Встроенный Win32-интерфейс для Win NT/2000Обработка зазоров : Добавлено к предыдущему треку
Выходной формат : Пользовательский кодировщикВыбранный битрейт : 768 kBit/sКачество : ВысокийДобавление ID3-тега : НетУтилита сжатия : C:\Program Files (x86)\Exact Audio Copy\Flac\flac.exeДополнительные параметры : -8 -V %s
TOC извлечённого CD
Трек | Старт | Длительность | Начальный сектор | Конечный сектор --------------------------------------------------------------------- 1 | 0:00.00 | 4:10.04 | 0 | 18753 2 | 4:10.04 | 4:05.60 | 18754 | 37188 3 | 8:15.64 | 4:48.12 | 37189 | 58800 4 | 13:04.01 | 4:54.38 | 58801 | 80888 5 | 17:58.39 | 5:03.01 | 80889 | 103614 6 | 23:01.40 | 5:47.32 | 103615 | 129671 7 | 28:48.72 | 2:45.73 | 129672 | 142119 8 | 31:34.70 | 3:52.46 | 142120 | 159565 9 | 35:27.41 | 4:45.64 | 159566 | 181004 10 | 40:13.30 | 4:59.58 | 181005 | 203487 11 | 45:13.13 | 4:30.62 | 203488 | 223799 12 | 49:44.00 | 5:18.74 | 223800 | 247723
Трек 1
Имя файла C:\Users\Admin\Music\Diana Krall - дискография\2009 - Quiet Nights [FLAC]\01. Where Or When.wav
Длина предзазора 0:00:02.00
Пиковый уровень 99.1 % Скорость извлечения 1.1 X Качество трека 99.9 % CRC теста 653A73E3 CRC копии 653A73E3 Точное извлечение (достоверность 84) [B71F5714] Копирование... OK
Трек 2
Имя файла C:\Users\Admin\Music\Diana Krall - дискография\2009 - Quiet Nights [FLAC]\02. Too Marvelous For Words.wav
Длина предзазора 0:00:01.04
Пиковый уровень 100.0 % Скорость извлечения 1.4 X Качество трека 100.0 % CRC теста FA1AC80E CRC копии FA1AC80E Точное извлечение (достоверность 84) [72F321EA] Копирование... OK
Трек 3
Имя файла C:\Users\Admin\Music\Diana Krall - дискография\2009 - Quiet Nights [FLAC]\03. I've Grown Accustomed To Your Face.wav
Длина предзазора 0:00:02.02
Пиковый уровень 90.3 % Скорость извлечения 1.5 X Качество трека 100.0 % CRC теста B8AF66F3 CRC копии B8AF66F3 Точное извлечение (достоверность 84) [57765DF2] Копирование... OK
Трек 4
Имя файла C:\Users\Admin\Music\Diana Krall - дискография\2009 - Quiet Nights [FLAC]\04. The Boy From Ipanema.wav
Длина предзазора 0:00:01.63
Пиковый уровень 100.0 % Скорость извлечения 1.5 X Качество трека 99.9 % CRC теста 4713C403 CRC копии 4713C403 Точное извлечение (достоверность 84) [E5FDE408] Копирование... OK
Трек 5
Имя файла C:\Users\Admin\Music\Diana Krall - дискография\2009 - Quiet Nights [FLAC]\05. Walk On By.wav
Длина предзазора 0:00:01.47
Пиковый уровень 100.0 % Скорость извлечения 1.8 X Качество трека 100.0 % CRC теста 83FB6937 CRC копии 83FB6937 Точное извлечение (достоверность 84) [9C82E391] Копирование... OK
Трек 6
Имя файла C:\Users\Admin\Music\Diana Krall - дискография\2009 - Quiet Nights [FLAC]\06. You're My Thrill.wav
Длина предзазора 0:00:01.32
Пиковый уровень 93.0 % Скорость извлечения 2.0 X Качество трека 100.0 % CRC теста 67F29D82 CRC копии 67F29D82 Точное извлечение (достоверность 83) [886035E5] Копирование... OK
Трек 7
Имя файла C:\Users\Admin\Music\Diana Krall - дискография\2009 - Quiet Nights [FLAC]\07. Este Seu Olhar.wav
Длина предзазора 0:00:00.02
Пиковый уровень 95.3 % Скорость извлечения 1.9 X Качество трека 100.0 % CRC теста 8A0C159F CRC копии 8A0C159F Точное извлечение (достоверность 83) [765C31C5] Копирование... OK
Трек 8
Имя файла C:\Users\Admin\Music\Diana Krall - дискография\2009 - Quiet Nights [FLAC]\08. So Nice.wav
Длина предзазора 0:00:00.69
Пиковый уровень 100.0 % Скорость извлечения 2.1 X Качество трека 100.0 % CRC теста 51D8D05F CRC копии 51D8D05F Точное извлечение (достоверность 83) [65F0327E] Копирование... OK
Трек 9
Имя файла C:\Users\Admin\Music\Diana Krall - дискография\2009 - Quiet Nights [FLAC]\09. Quiet Nights.wav
Длина предзазора 0:00:01.68
Пиковый уровень 91.6 % Скорость извлечения 2.2 X Качество трека 100.0 % CRC теста 6A331CCF CRC копии 6A331CCF Точное извлечение (достоверность 83) [45AF6AE5] Копирование... OK
Трек 10
Имя файла C:\Users\Admin\Music\Diana Krall - дискография\2009 - Quiet Nights [FLAC]\10. Guess I'll Hang My Tears Out To Dry.wav
Длина предзазора 0:00:00.44
Пиковый уровень 100.0 % Скорость извлечения 2.3 X Качество трека 100.0 % CRC теста 67FD24B1 CRC копии 67FD24B1 Точное извлечение (достоверность 82) [1F71D7C2] Копирование... OK
Трек 11
Имя файла C:\Users\Admin\Music\Diana Krall - дискография\2009 - Quiet Nights [FLAC]\11. How Can You Mend A Broken Heart.wav
Длина предзазора 0:00:09.13
Пиковый уровень 100.0 % Скорость извлечения 2.4 X Качество трека 100.0 % CRC теста AA1BDFB4 CRC копии AA1BDFB4 Точное извлечение (достоверность 81) [4AB29070] Копирование... OK
Трек 12
Имя файла C:\Users\Admin\Music\Diana Krall - дискография\2009 - Quiet Nights [FLAC]\12. Every Time We Say Goodbye.wav
Длина предзазора 0:00:01.60
Пиковый уровень 100.0 % Скорость извлечения 2.6 X Качество трека 100.0 % CRC теста C7EEF15E CRC копии C7EEF15E Точное извлечение (достоверность 82) [2862B9B0] Копирование... OK
Все треки извлечены точно
Ошибок не произошло
Конец отчёта

.cue-файл:

REM GENRE JazzREM DATE 2009REM DISCID B10CE60CREM COMMENT "ExactAudioCopy v1.0b1"PERFORMER "Diana Krall"TITLE "Quiet Nights"FILE "01. Where Or When.wav" WAVE TRACK 01 AUDIO TITLE "Where Or When" PERFORMER "Diana Krall" INDEX 01 00:00:00 TRACK 02 AUDIO TITLE "Too Marvelous For Words" PERFORMER "Diana Krall" INDEX 00 04:09:00FILE "02. Too Marvelous For Words.wav" WAVE INDEX 01 00:00:00 TRACK 03 AUDIO TITLE "I've Grown Accustomed To Your Face" PERFORMER "Diana Krall" INDEX 00 04:03:58FILE "03. I've Grown Accustomed To Your Face.wav" WAVE INDEX 01 00:00:00 TRACK 04 AUDIO TITLE "The Boy From Ipanema" PERFORMER "Diana Krall" INDEX 00 04:46:24FILE "04. The Boy From Ipanema.wav" WAVE INDEX 01 00:00:00 TRACK 05 AUDIO TITLE "Walk On By" PERFORMER "Diana Krall" INDEX 00 04:52:66FILE "05. Walk On By.wav" WAVE INDEX 01 00:00:00 TRACK 06 AUDIO TITLE "You're My Thrill" PERFORMER "Diana Krall" INDEX 00 05:01:44FILE "06. You're My Thrill.wav" WAVE INDEX 01 00:00:00 TRACK 07 AUDIO TITLE "Este Seu Olhar" PERFORMER "Diana Krall" INDEX 00 05:47:30FILE "07. Este Seu Olhar.wav" WAVE INDEX 01 00:00:00 TRACK 08 AUDIO TITLE "So Nice" PERFORMER "Diana Krall" INDEX 00 02:45:04FILE "08. So Nice.wav" WAVE INDEX 01 00:00:00 TRACK 09 AUDIO TITLE "Quiet Nights" PERFORMER "Diana Krall" INDEX 00 03:50:53FILE "09. Quiet Nights.wav" WAVE INDEX 01 00:00:00 TRACK 10 AUDIO TITLE "Guess I'll Hang My Tears Out To Dry" PERFORMER "Diana Krall" INDEX 00 04:45:20FILE "10. Guess I'll Hang My Tears Out To Dry.wav" WAVE INDEX 01 00:00:00 TRACK 11 AUDIO TITLE "How Can You Mend A Broken Heart" PERFORMER "Diana Krall" INDEX 00 04:50:45FILE "11. How Can You Mend A Broken Heart.wav" WAVE INDEX 01 00:00:00 TRACK 12 AUDIO TITLE "Every Time We Say Goodbye" PERFORMER "Diana Krall" INDEX 00 04:29:02FILE "12. Every Time We Say Goodbye.wav" WAVE INDEX 01 00:00:00
-

[torrentc.info]_t_4036092.torrent
Торрент: Зарегистрирован ·  [ 2017-08-29 19:18 ] ·  b7fa25142a9d480468f1ebc1c5e8fe366c687b6d

67 KB

Статус: проверено
Скачан: 0 раз
Размер: 5.85 GB
Оценка: 
(Голосов: 0)
Сказали спасибо: 0  Спасибо
Похожие темы
[Профиль]    [ЛС]
Показать сообщения:    
Ответить на тему

Текущее время: Сегодня 13:52

Часовой пояс: GMT + 7



Вы не можете начинать темы
Вы не можете отвечать на сообщения
Вы не можете редактировать свои сообщения
Вы не можете удалять свои сообщения
Вы не можете голосовать в опросах
Вы не можете прикреплять файлы к сообщениям
Вы можете скачивать файлы