(Vocal Jazz) [CD] Diana Krall - Turn Up the Quiet (Japan SHM-CD) - 2017, FLAC (image+.cue), lossless

Ответить на тему
Статистика раздачи [Обновить пиров]
Размер:  290 MB   |    Зарегистрирован:  3 месяца 19 дней   |    Скачан:  0 раз

Полного источника не было: Никогда

 
   
 
 
 
Автор Сообщение

torrentc.info

Создавать темы 29-Авг-2017 19:23

[Цитировать]

Diana Krall / Turn Up the Quiet (Japan SHM-CD)
Жанр: Vocal Jazz
Носитель: CD
Страна-производитель диска (релиза): Japan
Год издания: 2017
Издатель (лейбл): Verve
Номер по каталогу: UCCV-1162
Страна исполнителя (группы): Canada
Аудиокодек: FLAC (*.flac)
Тип рипа: image+.cue
Битрейт аудио: lossless
Продолжительность: 00:53:37
Источник (релизер): Leo246
Наличие сканов в содержимом раздачи: да
Треклист:
01. Like Someone In Love 3:16
02. Isn't It Romantic 4:29
03. L-O-V-E 4:21
04. Night And Day 4:39
05. I'm Confessin' (That I Love You) 3:24
06. Moonglow 5:15
07. Blue Skies 4:39
08. Sway 6:13
09. No Moon At All 4:06
10. Dream 4:05
11. I'll See You In My Dreams 3:51
12. How Deep Is The Ocean 5:16

Лог создания рипа

Exact Audio Copy V1.3 from 2. September 2016
EAC extraction logfile from 26. June 2017, 2:50
Diana Krall / Turn Up the Quiet Japan
Used drive : PLEXTOR DVD-RW PX-608U Adapter: 1 ID: 0
Read mode : SecureUtilize accurate stream : YesDefeat audio cache : YesMake use of C2 pointers : No
Read offset correction : 48Overread into Lead-In and Lead-Out : NoFill up missing offset samples with silence : YesDelete leading and trailing silent blocks : NoNull samples used in CRC calculations : YesUsed interface : Native Win32 interface for Win NT & 2000
Used output format : User Defined EncoderSelected bitrate : 896 kBit/sQuality : HighAdd ID3 tag : NoCommand line compressor : C:\Program Files\Exact Audio Copy\FLAC\FLAC.EXEAdditional command line options : -6 -V -T "ARTIST=%artist%" -T "TITLE=%title%" -T "ALBUM=%albumtitle%" -T "DATE=%year%" -T "TRACKNUMBER=%tracknr%" -T "GENRE=%genre%" -T "COMMENT=%comment%" -T "BAND=%albuminterpret%" -T "ALBUMARTIST=%albuminterpret%" -T "COMPOSER=%composer%" %haslyrics%--tag-from-file=LYRICS="%lyricsfile%"%haslyrics% -T "DISCNUMBER=%cdnumber%" -T "TOTALDISCS=%totalcds%" -T "TOTALTRACKS=%numtracks%" %hascover%--picture="%coverfile%"%hascover% %source% -o %dest%
TOC of the extracted CD
Track | Start | Length | Start sector | End sector --------------------------------------------------------- 1 | 0:00.00 | 3:16.42 | 0 | 14741 2 | 3:16.42 | 4:28.52 | 14742 | 34893 3 | 7:45.19 | 4:21.12 | 34894 | 54480 4 | 12:06.31 | 4:38.56 | 54481 | 75386 5 | 16:45.12 | 3:24.36 | 75387 | 90722 6 | 20:09.48 | 5:15.20 | 90723 | 114367 7 | 25:24.68 | 4:38.66 | 114368 | 135283 8 | 30:03.59 | 6:12.66 | 135284 | 163249 9 | 36:16.50 | 4:06.21 | 163250 | 181720 10 | 40:22.71 | 4:04.70 | 181721 | 200090 11 | 44:27.66 | 3:53.42 | 200091 | 217607 12 | 48:21.33 | 5:16.31 | 217608 | 241338
Range status and errors
Selected range
Filename T:\RIP\Diana Krall - Turn Up the Quiet Japan\Diana Krall - Turn Up the Quiet Japan.wav
Peak level 100.0 % Extraction speed 4.1 X Range quality 100.0 % Copy CRC F9DDD237 Copy OK
No errors occurred
AccurateRip summary
Track 1 not present in databaseTrack 2 not present in databaseTrack 3 not present in databaseTrack 4 not present in databaseTrack 5 not present in databaseTrack 6 not present in databaseTrack 7 not present in databaseTrack 8 not present in databaseTrack 9 not present in databaseTrack 10 not present in databaseTrack 11 not present in databaseTrack 12 not present in database
None of the tracks are present in the AccurateRip database
End of status report
---- CUETools DB Plugin V2.1.6
[CTDB TOCID: IzDvbqbpJdoDvST2fe3n8S18wAI-] foundSubmit result: IzDvbqbpJdoDvST2fe3n8S18wAI- has been confirmedTrack | CTDB Status 1 | (40/40) Accurately ripped 2 | (40/40) Accurately ripped 3 | (40/40) Accurately ripped 4 | (40/40) Accurately ripped 5 | (40/40) Accurately ripped 6 | (40/40) Accurately ripped 7 | (40/40) Accurately ripped 8 | (40/40) Accurately ripped 9 | (40/40) Accurately ripped 10 | (40/40) Accurately ripped 11 | (40/40) Accurately ripped 12 | (40/40) Accurately ripped
==== Log checksum 8CBAC0DD34ADE4DE611A17A7BD13BCA2E278C1D467E9A69993AFCA87B9D9C546 ====

Содержание индексной карты (.CUE)

REM GENRE VocalREM DATE 2017REM DISCID A20C910CREM COMMENT "ExactAudioCopy v1.3"PERFORMER "Diana Krall"TITLE "Turn Up the Quiet Japan"REM COMPOSER ""FILE "Diana Krall - Turn Up the Quiet Japan.flac" WAVE TRACK 01 AUDIO TITLE "Like Someone In Love" PERFORMER "Diana Krall" REM COMPOSER "" INDEX 01 00:00:00 TRACK 02 AUDIO TITLE "Isn't It Romantic" PERFORMER "Diana Krall" REM COMPOSER "" INDEX 01 03:16:42 TRACK 03 AUDIO TITLE "L-O-V-E" PERFORMER "Diana Krall" REM COMPOSER "" INDEX 00 07:44:53 INDEX 01 07:45:19 TRACK 04 AUDIO TITLE "Night And Day" PERFORMER "Diana Krall" REM COMPOSER "" INDEX 00 12:06:18 INDEX 01 12:06:31 TRACK 05 AUDIO TITLE "I'm Confessin' (That I Love You)" PERFORMER "Diana Krall" REM COMPOSER "" INDEX 00 16:44:53 INDEX 01 16:45:12 TRACK 06 AUDIO TITLE "Moonglow" PERFORMER "Diana Krall" REM COMPOSER "" INDEX 00 20:08:67 INDEX 01 20:09:48 TRACK 07 AUDIO TITLE "Blue Skies" PERFORMER "Diana Krall" REM COMPOSER "" INDEX 01 25:24:68 TRACK 08 AUDIO TITLE "Sway" PERFORMER "Diana Krall" REM COMPOSER "" INDEX 00 30:02:41 INDEX 01 30:03:59 TRACK 09 AUDIO TITLE "No Moon At All" PERFORMER "Diana Krall" REM COMPOSER "" INDEX 00 36:15:73 INDEX 01 36:16:50 TRACK 10 AUDIO TITLE "Dream" PERFORMER "Diana Krall" REM COMPOSER "" INDEX 01 40:22:71 TRACK 11 AUDIO TITLE "I'll See You In My Dreams" PERFORMER "Diana Krall" REM COMPOSER "" INDEX 00 44:26:32 INDEX 01 44:27:66 TRACK 12 AUDIO TITLE "How Deep Is the Ocean" PERFORMER "Diana Krall" REM COMPOSER "" INDEX 01 48:21:33
Доп. информация: Japan Edition +1 song

[torrentc.info]_t_5421177.torrent
Торрент: Зарегистрирован ·  [ 2017-08-29 19:18 ] ·  dbfa3836e2c42fbaa594e37e483e6dab5461e378

12 KB

Статус: проверено
Скачан: 0 раз
Размер: 290 MB
Оценка: 
(Голосов: 0)
Сказали спасибо: 0  Спасибо
Похожие темы
[Профиль]    [ЛС]
Показать сообщения:    
Ответить на тему

Текущее время: Сегодня 13:48

Часовой пояс: GMT + 7



Вы не можете начинать темы
Вы не можете отвечать на сообщения
Вы не можете редактировать свои сообщения
Вы не можете удалять свои сообщения
Вы не можете голосовать в опросах
Вы не можете прикреплять файлы к сообщениям
Вы можете скачивать файлы