(Vocal Jazz) [CD] Clare Fischer - The Clare Fischer Voices... and Sometimes Instruments - 2011, FLAC (image+.cue), lossless

Ответить на тему
Статистика раздачи [Обновить пиров]
Размер:  460 MB   |    Зарегистрирован:  3 месяца 19 дней   |    Скачан:  0 раз

Полного источника не было: Никогда

 
   
 
 
 
Автор Сообщение

torrentc.info

Создавать темы 29-Авг-2017 19:23

[Цитировать]

Clare Fischer - The Clare Fischer Voices... and Sometimes Instruments
Жанр: Vocal Jazz
Носитель: CD
Страна-производитель диска (релиза): США
Год издания: 2011
Издатель (лейбл): Clare Fischer Productions/Clavo Records
Номер по каталогу: CR 201107
Аудиокодек: FLAC (*.flac)
Тип рипа: image+.cue
Битрейт аудио: lossless
Продолжительность: 71:42
Источник (релизер): диск из моей коллекции
Наличие сканов в содержимом раздачи: да
Треклист:
01. Tom Cat (Fischer) - 3:51
02. Mood Indigo (Ellington-Bigard) - 4:19
03. America the Beautiful (Ward-Bates) - 2:58
04. Una Manana (Fischer) - 3:11
05. I Should Care (Stordahl-Weston-Cahn) - 1:58
06. Chopin Etude Op.10, No.6 (Chopin) - 3:38
07. Bachi (Fischer) - 6:10
08. If (Gates) - 4:16
09. You're My Thrill (Gorney-Clare) - 3:30
10. Last Night When We Were Young (Arlen-Harburg) - 4:32
11. Waiting for Jack's Plane (Fischer) - 4:00
12. The Boy Next Door (Blaine-Martin) - 2:44
13. Happy Time (Fischer) - 4:25
14. When Your Lover Has Gone (Swan) - 2:41
15. I'm Fine (Brent Fischer-Clare Fischer) - 2:21
16. So What Do I Care? (Roussin-Fischer) - 2:31
17. Memories of Gold (Fischer) - 2:27
18. Manha (Fischer) - 2:51
19. Love at Home (McNaughton) - 5:05
20. Pan Pipe Dance (Fischer) - 4:13

Лог создания рипа

Exact Audio Copy V1.3 from 2. September 2016
EAC extraction logfile from 1. July 2017, 2:07
Clare Fischer / The Clare Fischer Voices... and Sometimes Instruments
Used drive : ASUS DRW-24B1LT Adapter: 1 ID: 1
Read mode : SecureUtilize accurate stream : YesDefeat audio cache : YesMake use of C2 pointers : No
Read offset correction : 6Overread into Lead-In and Lead-Out : NoFill up missing offset samples with silence : YesDelete leading and trailing silent blocks : NoNull samples used in CRC calculations : YesUsed interface : Installed external ASPI interface
Used output format : User Defined EncoderSelected bitrate : 768 kBit/sQuality : HighAdd ID3 tag : NoCommand line compressor : C:\Program Files (x86)\Exact Audio Copy\Flac\flac.exeAdditional command line options : -8 -V -T "ARTIST=%artist%" -T "TITLE=%title%" -T "ALBUM=%albumtitle%" -T "DATE=%year%" -T "TRACKNUMBER=%tracknr%" -T "TOTALTRACKS=%numtracks%" -T "GENRE=%genre%" -T "ALBUMARTIST=%albumartist%" -T "ALBUM ARTIST=%albumartist%" -T "COMMENT=EAC Secure Mode, Test & Copy, AccurateRip, FLAC -8" %source%
TOC of the extracted CD
Track | Start | Length | Start sector | End sector --------------------------------------------------------- 1 | 0:00.00 | 3:50.55 | 0 | 17304 2 | 3:50.55 | 4:19.34 | 17305 | 36763 3 | 8:10.14 | 2:57.53 | 36764 | 50091 4 | 11:07.67 | 3:10.64 | 50092 | 64405 5 | 14:18.56 | 1:58.32 | 64406 | 73287 6 | 16:17.13 | 3:38.19 | 73288 | 89656 7 | 19:55.32 | 6:10.14 | 89657 | 117420 8 | 26:05.46 | 4:16.16 | 117421 | 136636 9 | 30:21.62 | 3:30.06 | 136637 | 152392 10 | 33:51.68 | 4:31.55 | 152393 | 172772 11 | 38:23.48 | 3:59.46 | 172773 | 190743 12 | 42:23.19 | 2:44.21 | 190744 | 203064 13 | 45:07.40 | 4:24.55 | 203065 | 222919 14 | 49:32.20 | 2:40.52 | 222920 | 234971 15 | 52:12.72 | 2:21.29 | 234972 | 245575 16 | 54:34.26 | 2:30.64 | 245576 | 256889 17 | 57:05.15 | 2:27.33 | 256890 | 267947 18 | 59:32.48 | 2:51.20 | 267948 | 280792 19 | 62:23.68 | 5:04.58 | 280793 | 303650 20 | 67:28.51 | 4:13.37 | 303651 | 322662
Range status and errors
Selected range
Filename F:\audio\Clare Fischer - The Clare Fischer Voices... and Sometimes Instruments.wav
Peak level 99.4 % Extraction speed 6.2 X Range quality 100.0 % Test CRC 017CD5B3 Copy CRC 017CD5B3 Copy OK
No errors occurred
AccurateRip summary
Track 1 accurately ripped (confidence 1) [38FE9985] (AR v2)Track 2 accurately ripped (confidence 1) [33237F18] (AR v2)Track 3 accurately ripped (confidence 1) [E1F58DFD] (AR v2)Track 4 accurately ripped (confidence 1) [AF89B2CD] (AR v2)Track 5 accurately ripped (confidence 1) [45F0D69B] (AR v2)Track 6 accurately ripped (confidence 1) [F5D3A990] (AR v2)Track 7 accurately ripped (confidence 1) [F5ED55C1] (AR v2)Track 8 accurately ripped (confidence 1) [2C6EE934] (AR v2)Track 9 accurately ripped (confidence 1) [64D06F20] (AR v2)Track 10 accurately ripped (confidence 1) [E28B9FBE] (AR v2)Track 11 accurately ripped (confidence 1) [67A2456E] (AR v2)Track 12 accurately ripped (confidence 1) [49425466] (AR v2)Track 13 accurately ripped (confidence 1) [FA801FAA] (AR v2)Track 14 accurately ripped (confidence 1) [E098516A] (AR v2)Track 15 accurately ripped (confidence 1) [1CE4C58E] (AR v2)Track 16 accurately ripped (confidence 1) [430CE856] (AR v2)Track 17 accurately ripped (confidence 1) [EA7AC69B] (AR v2)Track 18 accurately ripped (confidence 1) [45752E05] (AR v2)Track 19 accurately ripped (confidence 1) [1CE8729E] (AR v2)Track 20 accurately ripped (confidence 1) [C14E3623] (AR v2)
All tracks accurately ripped
End of status report
---- CUETools DB Plugin V2.1.6
[CTDB TOCID: j8agsxMgw9LMsRb.lFvdpqFNZUk-] foundSubmit result: already submittedTrack | CTDB Status 1 | (1/1) Accurately ripped 2 | (1/1) Accurately ripped 3 | (1/1) Accurately ripped 4 | (1/1) Accurately ripped 5 | (1/1) Accurately ripped 6 | (1/1) Accurately ripped 7 | (1/1) Accurately ripped 8 | (1/1) Accurately ripped 9 | (1/1) Accurately ripped 10 | (1/1) Accurately ripped 11 | (1/1) Accurately ripped 12 | (1/1) Accurately ripped 13 | (1/1) Accurately ripped 14 | (1/1) Accurately ripped 15 | (1/1) Accurately ripped 16 | (1/1) Accurately ripped 17 | (1/1) Accurately ripped 18 | (1/1) Accurately ripped 19 | (1/1) Accurately ripped 20 | (1/1) Accurately ripped
==== Log checksum 89DBE4BBB4CFCD156BD00847CF81243373E323094DD63D2C695D9CAAE72297BE ====

Содержание индексной карты (.CUE)

REM GENRE JazzREM DATE 2011REM DISCID 2E10CE14REM COMMENT "ExactAudioCopy v1.3"PERFORMER "Clare Fischer"TITLE "The Clare Fischer Voices... and Sometimes Instruments"FILE "Clare Fischer - The Clare Fischer Voices... and Sometimes Instruments.wav" WAVE TRACK 01 AUDIO TITLE "Tom Cat" PERFORMER "Clare Fischer" INDEX 01 00:00:00 TRACK 02 AUDIO TITLE "Mood Indigo" PERFORMER "Clare Fischer" INDEX 01 03:50:55 TRACK 03 AUDIO TITLE "America the Beautiful" PERFORMER "Clare Fischer" INDEX 01 08:10:14 TRACK 04 AUDIO TITLE "Una Manana" PERFORMER "Clare Fischer" INDEX 01 11:07:67 TRACK 05 AUDIO TITLE "I Should Care" PERFORMER "Clare Fischer" INDEX 01 14:18:56 TRACK 06 AUDIO TITLE "Chopin Etude Op.10, No.6" PERFORMER "Clare Fischer" INDEX 01 16:17:13 TRACK 07 AUDIO TITLE "Bachi" PERFORMER "Clare Fischer" INDEX 01 19:55:32 TRACK 08 AUDIO TITLE "If" PERFORMER "Clare Fischer" INDEX 01 26:05:46 TRACK 09 AUDIO TITLE "You're My Thrill" PERFORMER "Clare Fischer" INDEX 01 30:21:62 TRACK 10 AUDIO TITLE "Last Night When We Were Young" PERFORMER "Clare Fischer" INDEX 01 33:51:68 TRACK 11 AUDIO TITLE "Waiting for Jack's Plane" PERFORMER "Clare Fischer" INDEX 01 38:23:48 TRACK 12 AUDIO TITLE "The Boy Next Door" PERFORMER "Clare Fischer" INDEX 01 42:23:19 TRACK 13 AUDIO TITLE "Happy Time" PERFORMER "Clare Fischer" INDEX 01 45:07:40 TRACK 14 AUDIO TITLE "When Your Lover Has Gone" PERFORMER "Clare Fischer" INDEX 01 49:32:20 TRACK 15 AUDIO TITLE "I'm Fine" PERFORMER "Clare Fischer" INDEX 01 52:12:72 TRACK 16 AUDIO TITLE "So What Do I Care?" PERFORMER "Clare Fischer" INDEX 01 54:34:26 TRACK 17 AUDIO TITLE "Memories of Gold" PERFORMER "Clare Fischer" INDEX 01 57:05:15 TRACK 18 AUDIO TITLE "Manha" PERFORMER "Clare Fischer" INDEX 01 59:32:48 TRACK 19 AUDIO TITLE "Love at Home" PERFORMER "Clare Fischer" INDEX 01 62:23:68 TRACK 20 AUDIO TITLE "Pan Pipe Dance" PERFORMER "Clare Fischer" INDEX 01 67:28:51

Отчет CUETools

[CUETools log; Date: 01.07.2017 13:14:56; Version: 2.1.5][CTDB TOCID: j8agsxMgw9LMsRb.lFvdpqFNZUk-] found.Track | CTDB Status 1 | (1/1) Accurately ripped 2 | (1/1) Accurately ripped 3 | (1/1) Accurately ripped 4 | (1/1) Accurately ripped 5 | (1/1) Accurately ripped 6 | (1/1) Accurately ripped 7 | (1/1) Accurately ripped 8 | (1/1) Accurately ripped 9 | (1/1) Accurately ripped 10 | (1/1) Accurately ripped 11 | (1/1) Accurately ripped 12 | (1/1) Accurately ripped 13 | (1/1) Accurately ripped 14 | (1/1) Accurately ripped 15 | (1/1) Accurately ripped 16 | (1/1) Accurately ripped 17 | (1/1) Accurately ripped 18 | (1/1) Accurately ripped 19 | (1/1) Accurately ripped 20 | (1/1) Accurately ripped[AccurateRip ID: 00347d56-02fe1477-2e10ce14] found.Track [ CRC | V2 ] Status 01 [db3dbf49|38fe9985] (0+1/1) Accurately ripped 02 [2164c088|33237f18] (0+1/1) Accurately ripped 03 [d020948b|e1f58dfd] (0+1/1) Accurately ripped 04 [73d4454a|af89b2cd] (0+1/1) Accurately ripped 05 [13d60315|45f0d69b] (0+1/1) Accurately ripped 06 [94042139|f5d3a990] (0+1/1) Accurately ripped 07 [fa1ac333|f5ed55c1] (0+1/1) Accurately ripped 08 [43948545|2c6ee934] (0+1/1) Accurately ripped 09 [8d169461|64d06f20] (0+1/1) Accurately ripped 10 [00c0aa1e|e28b9fbe] (0+1/1) Accurately ripped 11 [38f8cbf4|67a2456e] (0+1/1) Accurately ripped 12 [d30a7a88|49425466] (0+1/1) Accurately ripped 13 [b1bd80bd|fa801faa] (0+1/1) Accurately ripped 14 [83afddba|e098516a] (0+1/1) Accurately ripped 15 [04418d3d|1ce4c58e] (0+1/1) Accurately ripped 16 [b6c3c52f|430ce856] (0+1/1) Accurately ripped 17 [03a6836f|ea7ac69b] (0+1/1) Accurately ripped 18 [35573f93|45752e05] (0+1/1) Accurately ripped 19 [86c8a0f7|1ce8729e] (0+1/1) Accurately ripped 20 [3bf2189e|c14e3623] (0+1/1) Accurately ripped
Track Peak [ CRC32 ] [W/O NULL] [ LOG ] -- 99,4 [017CD5B3] [D34424F1] CRC32 01 95,3 [0FD252B5] [25E82A43] 02 93,8 [FF613F3F] [4DA79432] 03 98,4 [3F7AEAFC] [B1409A8D] 04 97,7 [BF18B037] [B8A01C3A] 05 96,2 [4B5254A1] [74AAE6A5] 06 98,5 [238DBEDD] [694F16B4] 07 98,4 [5D766D42] [2C173E12] 08 93,8 [DE2C7BFB] [B207B1DD] 09 96,2 [4FF10266] [A39847CC] 10 77,3 [3AEF90B0] [835FB767] 11 97,7 [BD7B3A21] [928C5D43] 12 96,3 [7A363775] [1CD3CE81] 13 99,4 [3B1FC7AA] [1BD41D82] 14 98,7 [62AC95B9] [17753A5F] 15 97,0 [4D4EAA66] [335431C9] 16 78,3 [2A6FFBB3] [D8552CE6] 17 86,9 [C272C7D0] [6E2A8FF6] 18 84,0 [ADE9F5B0] [F4CF2E09] 19 87,5 [961A88C5] [18CA92FD] 20 94,7 [AC0BE36F] [A1BABBEA]

Об альбоме (сборнике)

On the vocal album, …And Sometimes Instruments you’ll discover 20 songs with originals like “Tom Cat” (written for his favorite feline), “Pan Pipe Dance,” and Latin jazz staples such as “Bachi” (also composed for a family pet) with new arrangements from Brent Fischer of “Morning,” the wildly popular classic from the Fischer song catalogue. Also included are Fischer renditions of much loved standards like “Mood Indigo,” and “I Should Care.” The album showcases the Fischers’ jazz, Latin, choral and symphonic influences. “Each song presents a different orchestral coloring because of the variety of voice and instrument combinations used,” says producer Brent Fischer.
The Fischers assembled some of the planet’s finest musicians for both releases. The vocal album features Don Shelton (Hi-Lo’s, Singers Unlimited) and studio veteran Gary Foster (Mel Tormé, Jane Monheit).

Состав

Dr. Clare Fischer - all keyboards (except where noted), narration (#10), vocals (#15)
Brent Fischer - all electric basses, vibraphone, marimba, shakers, rainstick, additional keyboards
Cor Bakker - keyboards (#7)
Bryan Pezzone - piano (#3)
Don Shelton - all woodwinds (except where noted), baritone vocal (#12,17), vocal solo (#9)
Mary Hylan - soprano vocal
Angie Jaree - alto vocal
Gary Jones, David Joyce - tenor vocal
Ian Freebairn-Smith (#2,3,5,8,10,11), John Laird (#19) - baritone vocal
Bob Joyce - baritone vocal (#1,4,6,7,9,13,14,18), bass vocal (#2,3,5,8,10-12,17,20)
Darlene Koldenhoven - soprano vocal (#19)
Melissa Mackay - alto vocal (#12,17)
Michael Redman - tenor vocal (#19)
Gary Foster - clarinet (#15)
Alex Budman - soprano saxophone (#11)
Enzo Todesco (except #15), Kendall Kay (#15) - drums
Kevin Ricard - percussion

[torrentc.info]_t_5423516.torrent
Торрент: Зарегистрирован ·  [ 2017-08-29 19:18 ] ·  c6072c81073e21d1566a076d7eeb0a0c144fe2e6

19 KB

Статус: проверено
Скачан: 0 раз
Размер: 460 MB
Оценка: 
(Голосов: 0)
Сказали спасибо: 0  Спасибо
Похожие темы
[Профиль]    [ЛС]
Показать сообщения:    
Ответить на тему

Текущее время: Сегодня 13:58

Часовой пояс: GMT + 7



Вы не можете начинать темы
Вы не можете отвечать на сообщения
Вы не можете редактировать свои сообщения
Вы не можете удалять свои сообщения
Вы не можете голосовать в опросах
Вы не можете прикреплять файлы к сообщениям
Вы можете скачивать файлы