(Vocal Jazz) [CD] Susana Sheiman & Ignasi Terraza Trio - Swing Appeal - 2011, FLAC (tracks+.cue), lossless

Ответить на тему
Статистика раздачи [Обновить пиров]
Размер:  282 MB   |    Зарегистрирован:  3 месяца 19 дней   |    Скачан:  1 раз

Полного источника не было: 2 месяца 23 дня

 
   
 
 
 
Автор Сообщение

torrentc.info

Создавать темы 29-Авг-2017 19:23

[Цитировать]

Susana Sheiman & Ignasi Terraza Trio - Swing Appeal
Жанр: Vocal Jazz
Носитель: CD
Страна-производитель диска (релиза): Испания
Год издания: 2011
Издатель (лейбл): Swit Records
Номер по каталогу: SWIT10
Аудиокодек: FLAC (*.flac)
Тип рипа: tracks+.cue
Битрейт аудио: lossless
Продолжительность: 52:44
Источник (релизер): hirudolibera
Наличие сканов в содержимом раздачи: нет
Треклист:
01. I'm Glad There Is You (Dorsey-Mertz) - 5:35
02. P.S. I Love You (Mercer-Jenkins) - 4:15
03. Spring Can Really Hang You Up the Most (Landesman-Wolf) - 5:13
04. Just One of Those Things (Porter) - 3:02
05. Good Morning Heartache (Fisher-Drake-Higginbotham) - 6:03
06. Where or When (Rodgers-Hart) - 2:56
07. Emotional Dance (Terraza-Sheiman) - 4:19
08. Glad to Be Unhappy (Rodgers-Hart) - 6:14
09. Never Let Me Go (Evans-Livingston) - 3:51
10. Don't Ever Leave Me (Kern-Hammerstein) - 2:42
11. It Don't Mean a Thing (If It Ain't Got That Swing) (Ellington) - 5:04
12. There'll Be Another Spring (Lee-Wheeler) - 3:30
Состав:
Susana Sheiman - vocals
Ignasi Terraza - piano
Giorgos Antoniou - bass
Esteve Pi - drums
Jesse Davis - alto saxophone (#1,11)
Damon Brown - trumpet (#5-7)
Oscar Alonso - congas (#6,12)
Recorded at Estudi Oido, Barcelona on January 25-26, 2011.

Лог создания рипа

Exact Audio Copy V1.3 from 2. September 2016
EAC extraction logfile from 30. June 2017, 22:30
Susana Sheiman & Ignasi Terraza Trio / Swing Appeal
Used drive : HL-DT-STBD-RE BE16NU50 Adapter: 1 ID: 0
Read mode : SecureUtilize accurate stream : YesDefeat audio cache : YesMake use of C2 pointers : No
Read offset correction : 6Overread into Lead-In and Lead-Out : NoFill up missing offset samples with silence : YesDelete leading and trailing silent blocks : NoNull samples used in CRC calculations : YesUsed interface : Native Win32 interface for Win NT & 2000Gap handling : Appended to previous track
Used output format : User Defined EncoderSelected bitrate : 1024 kBit/sQuality : HighAdd ID3 tag : NoCommand line compressor : C:\Program Files (x86)\Exact Audio Copy\FLAC\FLAC.EXEAdditional command line options : -8 -e -p -V -T "PERFORMER=%albuminterpret%" -T "COMPOSER=%composer%" -T "ALBUMARTIST=%albumartist%" -T "ARTIST=%artist%" -T "TITLE=%title%" -T "ALBUM=%albumtitle%" -T "DATE=%year%" -T "TRACKNUMBER=%tracknr%" -T "TOTALTRACKS=%numtracks%" -T "DISCNUMBER=%cdnumber%" -T "TOTALDISCS=%totalcds%" -T "COMMENT=%comment%" %source% -o %dest%
TOC of the extracted CD
Track | Start | Length | Start sector | End sector --------------------------------------------------------- 1 | 0:00.00 | 5:34.42 | 0 | 25091 2 | 5:34.42 | 4:14.48 | 25092 | 44189 3 | 9:49.15 | 5:12.59 | 44190 | 67648 4 | 15:01.74 | 3:01.42 | 67649 | 81265 5 | 18:03.41 | 6:03.28 | 81266 | 108518 6 | 24:06.69 | 2:56.04 | 108519 | 121722 7 | 27:02.73 | 4:18.65 | 121723 | 141137 8 | 31:21.63 | 6:14.29 | 141138 | 169216 9 | 37:36.17 | 3:51.24 | 169217 | 186565 10 | 41:27.41 | 2:41.49 | 186566 | 198689 11 | 44:09.15 | 5:04.14 | 198690 | 221503 12 | 49:13.29 | 3:30.11 | 221504 | 237264
Track 1
Filename C:\EAC\01 - I'm Glad There Is You (feat. Jesse Davis).wav
Pre-gap length 0:00:02.00
Peak level 98.8 % Extraction speed 5.2 X Track quality 100.0 % Test CRC 93ECC28D Copy CRC 93ECC28D Cannot be verified as accurate (confidence 1) [A5ABC0E1], AccurateRip returned [FD81B8ED] (AR v2) Copy OK
Track 2
Filename C:\EAC\02 - P.S. I Love You.wav
Pre-gap length 0:00:01.09
Peak level 98.8 % Extraction speed 4.7 X Track quality 99.9 % Test CRC FFA2E084 Copy CRC FFA2E084 Cannot be verified as accurate (confidence 1) [12CC4376], AccurateRip returned [22C37B44] (AR v2) Copy OK
Track 3
Filename C:\EAC\03 - Spring Can Really Hang You Up the Most.wav
Peak level 98.8 % Extraction speed 6.2 X Track quality 100.0 % Test CRC 762F1951 Copy CRC 762F1951 Cannot be verified as accurate (confidence 1) [E5FC49CF], AccurateRip returned [CBC920D0] (AR v2) Copy OK
Track 4
Filename C:\EAC\04 - Just One of Those Things.wav
Peak level 98.8 % Extraction speed 4.8 X Track quality 99.9 % Test CRC B6600E9F Copy CRC B6600E9F Cannot be verified as accurate (confidence 1) [C5ABC019], AccurateRip returned [8897B6DE] (AR v2) Copy OK
Track 5
Filename C:\EAC\05 - Good Morning Heartache (feat. Damon Brown).wav
Pre-gap length 0:00:01.65
Peak level 85.8 % Extraction speed 7.1 X Track quality 100.0 % Test CRC 529D27EB Copy CRC 529D27EB Cannot be verified as accurate (confidence 1) [0DC424B1], AccurateRip returned [F7277073] (AR v2) Copy OK
Track 6
Filename C:\EAC\06 - Where or When (feat. Damon Brown).wav
Pre-gap length 0:00:00.06
Peak level 98.8 % Extraction speed 6.7 X Track quality 100.0 % Test CRC E53AF07B Copy CRC E53AF07B Cannot be verified as accurate (confidence 1) [1118E7D3], AccurateRip returned [35A3DFB6] (AR v2) Copy OK
Track 7
Filename C:\EAC\07 - Emotional Dance (feat. Damon Brown).wav
Pre-gap length 0:00:03.66
Peak level 75.2 % Extraction speed 7.5 X Track quality 100.0 % Test CRC F266C344 Copy CRC F266C344 Cannot be verified as accurate (confidence 1) [B209258E], AccurateRip returned [A315C6A1] (AR v2) Copy OK
Track 8
Filename C:\EAC\08 - Glad to Be Unhappy.wav
Peak level 98.8 % Extraction speed 8.1 X Track quality 100.0 % Test CRC DD95A356 Copy CRC DD95A356 Cannot be verified as accurate (confidence 1) [E701D1AB], AccurateRip returned [C671EE07] (AR v2) Copy OK
Track 9
Filename C:\EAC\09 - Never Let Me Go.wav
Pre-gap length 0:00:03.33
Peak level 98.8 % Extraction speed 8.0 X Track quality 100.0 % Test CRC 0328BBF0 Copy CRC 0328BBF0 Cannot be verified as accurate (confidence 1) [C78E1D24], AccurateRip returned [A7513D22] (AR v2) Copy OK
Track 10
Filename C:\EAC\10 - Don't Ever Leave Me.wav
Pre-gap length 0:00:00.04
Peak level 82.2 % Extraction speed 5.6 X Track quality 99.9 % Test CRC 2ACCCB21 Copy CRC 2ACCCB21 Cannot be verified as accurate (confidence 1) [4561A63A], AccurateRip returned [E37C5ED1] (AR v2) Copy OK
Track 11
Filename C:\EAC\11 - It Don't Mean a Thing (feat. Jesse Davis).wav
Pre-gap length 0:00:02.34
Peak level 98.8 % Extraction speed 8.6 X Track quality 100.0 % Test CRC 321C136D Copy CRC 321C136D Cannot be verified as accurate (confidence 1) [68EDD924], AccurateRip returned [3D1B0E28] (AR v2) Copy OK
Track 12
Filename C:\EAC\12 - There'll Be Another Spring.wav
Peak level 98.8 % Extraction speed 6.6 X Track quality 99.9 % Test CRC 95818A88 Copy CRC 95818A88 Cannot be verified as accurate (confidence 1) [B44554D0], AccurateRip returned [537C202D] (AR v2) Copy OK
No tracks could be verified as accurateYou may have a different pressing from the one(s) in the database
No errors occurred
End of status report
---- CUETools DB Plugin V2.1.6
[CTDB TOCID: azsfzcHYzu_v8N.XPWHQcSOsF3E-] database access error: Der Remotename konnte nicht aufgelöst werden: 'db.cuetools.net'
==== Log checksum 05E707E4192999CC9E30FAD327A4865B1ADE236FB69047E9DB38B13A074EE8B8 ====

Содержание индексной карты (.CUE)

REM GENRE JazzREM DATE 2011REM DISCID B40C5B0CREM COMMENT "ExactAudioCopy v1.3"PERFORMER "Susana Sheiman & Ignasi Terraza"TITLE "Swing Appeal"FILE "01 - I'm Glad There Is You.wav" WAVE TRACK 01 AUDIO TITLE "I'm Glad There Is You" PERFORMER "Susana Sheiman & Ignasi Terraza" ISRC ES8421101001 INDEX 01 00:00:00 TRACK 02 AUDIO TITLE "P.S. I Love You" PERFORMER "Susana Sheiman & Ignasi Terraza" ISRC ES8421101002 INDEX 00 05:33:35FILE "02 - P.S. I Love You.wav" WAVE INDEX 01 00:00:00FILE "03 - Spring Can Really Hang You Up the Most.wav" WAVE TRACK 03 AUDIO TITLE "Spring Can Really Hang You Up the Most" PERFORMER "Susana Sheiman & Ignasi Terraza" ISRC ES8421101003 INDEX 01 00:00:00FILE "04 - Just One of Those Things.wav" WAVE TRACK 04 AUDIO TITLE "Just One of Those Things" PERFORMER "Susana Sheiman & Ignasi Terraza" ISRC ES8421101004 INDEX 01 00:00:00 TRACK 05 AUDIO TITLE "Good Morning Heartache" PERFORMER "Susana Sheiman & Ignasi Terraza" ISRC ES8421101005 INDEX 00 02:59:68FILE "05 - Good Morning Heartache.wav" WAVE INDEX 01 00:00:00 TRACK 06 AUDIO TITLE "Where or When" PERFORMER "Susana Sheiman & Ignasi Terraza" ISRC ES8421101006 INDEX 00 06:03:23FILE "06 - Where or When.wav" WAVE INDEX 01 00:00:00 TRACK 07 AUDIO TITLE "Emotional Dance" PERFORMER "Susana Sheiman & Ignasi Terraza" ISRC ES8421101007 INDEX 00 02:52:29FILE "07 - Emotional Dance.wav" WAVE INDEX 01 00:00:00FILE "08 - Glad to Be Unhappy.wav" WAVE TRACK 08 AUDIO TITLE "Glad to Be Unhappy" PERFORMER "Susana Sheiman & Ignasi Terraza" ISRC ES8421101008 INDEX 01 00:00:00 TRACK 09 AUDIO TITLE "Never Let Me Go" PERFORMER "Susana Sheiman & Ignasi Terraza" ISRC ES8421101009 INDEX 00 06:11:04FILE "09 - Never Let Me Go.wav" WAVE INDEX 01 00:00:00 TRACK 10 AUDIO TITLE "Don't Ever Leave Me" PERFORMER "Susana Sheiman & Ignasi Terraza" ISRC ES8421101010 INDEX 00 03:51:21FILE "10 - Don't Ever Leave Me.wav" WAVE INDEX 01 00:00:00 TRACK 11 AUDIO TITLE "It Don't Mean a Thing (If It Ain't Got That Swing)" PERFORMER "Susana Sheiman & Ignasi Terraza" ISRC ES8421101011 INDEX 00 02:39:23FILE "11 - It Don't Mean a Thing (If It Ain't Got That Swing).wav" WAVE INDEX 01 00:00:00FILE "12 - There'll Be Another Spring.wav" WAVE TRACK 12 AUDIO TITLE "There'll Be Another Spring" PERFORMER "Susana Sheiman & Ignasi Terraza" ISRC ES8421101012 INDEX 01 00:00:00

Отчет CUETools

[CUETools log; Date: 04.07.2017 22:35:56; Version: 2.1.5][CTDB TOCID: azsfzcHYzu_v8N.XPWHQcSOsF3E-] found.Track | CTDB Status 1 | (2/2) Accurately ripped 2 | (2/2) Accurately ripped 3 | (2/2) Accurately ripped 4 | (2/2) Accurately ripped 5 | (2/2) Accurately ripped 6 | (2/2) Accurately ripped 7 | (2/2) Accurately ripped 8 | (2/2) Accurately ripped 9 | (2/2) Accurately ripped 10 | (2/2) Accurately ripped 11 | (2/2) Accurately ripped 12 | (2/2) Accurately ripped[AccurateRip ID: 00187503-00e1f650-b40c5b0c] found.Track [ CRC | V2 ] Status 01 [8564edd3|a5abc0e1] (0+0/3) No match 02 [e4747e97|12cc4376] (0+0/3) No match 03 [1e4a5d8a|e5fc49cf] (0+0/3) No match 04 [f3f7506d|c5abc019] (0+0/3) No match 05 [d31c4573|0dc424b1] (0+0/3) No match 06 [06523886|1118e7d3] (0+0/3) No match 07 [a01e644b|b209258e] (0+0/3) No match 08 [85aaee1d|e701d1ab] (0+0/3) No match 09 [bffdd0a2|c78e1d24] (0+0/3) No match 10 [da24e5b9|4561a63a] (0+0/3) No match 11 [6288246b|68edd924] (0+0/3) No match 12 [36abfd84|b44554d0] (0+0/3) No matchOffsetted by 24: 01 [fd81b8ed] (1/3) Accurately ripped 02 [22c37b44] (1/3) Accurately ripped 03 [cbc920d0] (1/3) Accurately ripped 04 [8897b6de] (1/3) Accurately ripped 05 [f7277073] (1/3) Accurately ripped 06 [35a3dfb6] (1/3) Accurately ripped 07 [a315c6a1] (1/3) Accurately ripped 08 [c671ee07] (1/3) Accurately ripped 09 [a7513d22] (1/3) Accurately ripped 10 [e37c5ed1] (1/3) Accurately ripped 11 [3d1b0e28] (1/3) Accurately ripped 12 [537c202d] (1/3) Accurately ripped
Track Peak [ CRC32 ] [W/O NULL] [ LOG ] -- 98,8 [3430BF8B] [09D402CE] 01 98,8 [93ECC28D] [00B51297] CRC32 02 98,8 [FFA2E084] [833542B6] CRC32 03 98,8 [762F1951] [C44B4AA1] CRC32 04 98,8 [B6600E9F] [0B8D3761] CRC32 05 85,8 [529D27EB] [8117B535] CRC32 06 98,8 [E53AF07B] [F2642815] CRC32 07 75,2 [F266C344] [D265165D] CRC32 08 98,8 [DD95A356] [DD9705F5] CRC32 09 98,8 [0328BBF0] [463E948A] CRC32 10 82,2 [2ACCCB21] [A523F4C5] CRC32 11 98,8 [321C136D] [EA73A9EE] CRC32 12 98,8 [95818A88] [A2D74357] CRC32

Об альбоме (сборнике)

With its brilliant execution and its unstoppable communicative strength, Swing Appeal is a CD that, for the same price, can satisfy the most demanding jazz palates, as well as a wide-ranging public thirsty for good music.
Here Sheiman confirms her ability as an interpreter of the highest calibre, placing her brilliant and expansive voice at the disposal of a collection of swinging and faultless songs. Terraza chooses a special focus for each theme, in order that they have a differentiated colouring and treatment, until he achieves the maximum relief. A feast for the ears.
-- Karles Torra

[torrentc.info]_t_5424676.torrent
Торрент: Зарегистрирован ·  [ 2017-08-29 19:18 ] ·  73f967e6c1419e92b494ac3eb790bb64ffe73c87

13 KB

Статус: проверено
Скачан: 1 раз
Размер: 282 MB
Оценка: 
(Голосов: 0)
Сказали спасибо: 0  Спасибо
Похожие темы
[Профиль]    [ЛС]
Показать сообщения:    
Ответить на тему

Текущее время: Сегодня 13:49

Часовой пояс: GMT + 7



Вы не можете начинать темы
Вы не можете отвечать на сообщения
Вы не можете редактировать свои сообщения
Вы не можете удалять свои сообщения
Вы не можете голосовать в опросах
Вы не можете прикреплять файлы к сообщениям
Вы можете скачивать файлы