(Vocal Jazz, Christmas) [CD] Cor Vivaldi & Ignasi Terraza Trio - El 25 de Desembre Swing, Swing, Swing! - 2012, FLAC (tracks+.cue), lossless

Ответить на тему
Статистика раздачи [Обновить пиров]
Размер:  222 MB   |    Зарегистрирован:  3 месяца 19 дней   |    Скачан:  0 раз

Полного источника не было: Никогда

 
   
 
 
 
Автор Сообщение

torrentc.info

Создавать темы 29-Авг-2017 19:23

[Цитировать]

Cor Vivaldi & Ignasi Terraza Trio - El 25 de Desembre Swing, Swing, Swing!
Жанр: Vocal Jazz, Christmas
Носитель: CD
Страна-производитель диска (релиза): Испания
Год издания: 2012
Издатель (лейбл): Swit Records
Номер по каталогу: SWIT13
Аудиокодек: FLAC (*.flac)
Тип рипа: tracks+.cue
Битрейт аудио: lossless
Продолжительность: 37:22
Источник (релизер): hirudolibera
Наличие сканов в содержимом раздачи: нет
Треклист:
01. Les dotze van tocant (Trad.) - 2:50
02. Benvinguda (Shaw) - 1:38
03. El desembre congelat (Trad.) - 2:40
04. L'angel i els pastors (Trad.) - 3:46
05. El cant dels ocells (Trad.) - 3:57
06. El rabada (Trad.) - 4:05
07. El dimoni escuat (Trad.) - 5:33
08. El noi de la mare (Trad.) - 3:23
09. Sant Josep i la Mare de Deu (Trad.) - 3:17
10. Fum, fum, fum (Trad.) - 4:26
11. Epileg nadalenc (Terraza) - 1:47

Лог создания рипа

Exact Audio Copy V1.3 from 2. September 2016
EAC extraction logfile from 1. July 2017, 14:56
Cor Vivaldi & Ignasi Terraza Trio / El 25 de Desembre Swing, Swing, Swing
Used drive : HL-DT-STBD-RE BE16NU50 Adapter: 1 ID: 0
Read mode : SecureUtilize accurate stream : YesDefeat audio cache : YesMake use of C2 pointers : No
Read offset correction : 6Overread into Lead-In and Lead-Out : NoFill up missing offset samples with silence : YesDelete leading and trailing silent blocks : NoNull samples used in CRC calculations : YesUsed interface : Native Win32 interface for Win NT & 2000Gap handling : Appended to previous track
Used output format : User Defined EncoderSelected bitrate : 1024 kBit/sQuality : HighAdd ID3 tag : NoCommand line compressor : C:\Program Files (x86)\Exact Audio Copy\FLAC\FLAC.EXEAdditional command line options : -8 -e -p -V -T "PERFORMER=%albuminterpret%" -T "COMPOSER=%composer%" -T "ALBUMARTIST=%albumartist%" -T "ARTIST=%artist%" -T "TITLE=%title%" -T "ALBUM=%albumtitle%" -T "DATE=%year%" -T "TRACKNUMBER=%tracknr%" -T "TOTALTRACKS=%numtracks%" -T "DISCNUMBER=%cdnumber%" -T "TOTALDISCS=%totalcds%" -T "COMMENT=%comment%" %source% -o %dest%
TOC of the extracted CD
Track | Start | Length | Start sector | End sector --------------------------------------------------------- 1 | 0:00.00 | 2:50.12 | 0 | 12761 2 | 2:50.12 | 1:37.51 | 12762 | 20087 3 | 4:27.63 | 2:39.71 | 20088 | 32083 4 | 7:07.59 | 3:45.53 | 32084 | 49011 5 | 10:53.37 | 3:56.40 | 49012 | 66751 6 | 14:50.02 | 4:04.38 | 66752 | 85089 7 | 18:54.40 | 5:33.33 | 85090 | 110097 8 | 24:27.73 | 3:23.19 | 110098 | 125341 9 | 27:51.17 | 3:17.09 | 125342 | 140125 10 | 31:08.26 | 4:26.23 | 140126 | 160098 11 | 35:34.49 | 1:46.49 | 160099 | 168097
Track 1
Filename C:\EAC\01 - Les Dotze Van Tocant.wav
Pre-gap length 0:00:02.00
Peak level 97.7 % Extraction speed 4.6 X Track quality 100.0 % Test CRC 4D2B9331 Copy CRC 4D2B9331 Track not present in AccurateRip database Copy OK
Track 2
Filename C:\EAC\02 - Benvinguda.wav
Pre-gap length 0:00:03.00
Peak level 97.7 % Extraction speed 4.3 X Track quality 100.0 % Test CRC BD4E71CE Copy CRC BD4E71CE Track not present in AccurateRip database Copy OK
Track 3
Filename C:\EAC\03 - El Desembre Congelat (feat. Susana Sheiman).wav
Peak level 97.7 % Extraction speed 5.0 X Track quality 100.0 % Test CRC FE49827E Copy CRC FE49827E Track not present in AccurateRip database Copy OK
Track 4
Filename C:\EAC\04 - L'àngel i els Pastors (feat. Joan Chamorro, Andrea Motis).wav
Pre-gap length 0:00:03.00
Peak level 97.7 % Extraction speed 5.7 X Track quality 100.0 % Test CRC 16481134 Copy CRC 16481134 Track not present in AccurateRip database Copy OK
Track 5
Filename C:\EAC\05 - El Cant dels Ocells (feat. Joaquín Gómez el Duende ).wav
Pre-gap length 0:00:03.00
Peak level 97.7 % Extraction speed 6.1 X Track quality 100.0 % Test CRC 912990B9 Copy CRC 912990B9 Track not present in AccurateRip database Copy OK
Track 6
Filename C:\EAC\06 - El Rabadà.wav
Pre-gap length 0:00:03.00
Peak level 97.7 % Extraction speed 6.5 X Track quality 100.0 % Test CRC 251D5DC9 Copy CRC 251D5DC9 Track not present in AccurateRip database Copy OK
Track 7
Filename C:\EAC\07 - El Dimoni Escuat (feat. Joan Chamorro, Andrea Motis).wav
Pre-gap length 0:00:03.00
Peak level 97.7 % Extraction speed 7.1 X Track quality 100.0 % Test CRC E2FC3EF1 Copy CRC E2FC3EF1 Track not present in AccurateRip database Copy OK
Track 8
Filename C:\EAC\08 - El Noi de la Mare (feat. Randy Greer).wav
Pre-gap length 0:00:03.00
Peak level 97.7 % Extraction speed 7.0 X Track quality 100.0 % Test CRC 4A8177B2 Copy CRC 4A8177B2 Track not present in AccurateRip database Copy OK
Track 9
Filename C:\EAC\09 - Sant Josep i la Mare de Déu (feat. Susana Sheiman).wav
Pre-gap length 0:00:03.00
Peak level 97.7 % Extraction speed 7.2 X Track quality 100.0 % Test CRC EA024719 Copy CRC EA024719 Track not present in AccurateRip database Copy OK
Track 10
Filename C:\EAC\10 - Fum, Fum, Fum (feat. Randy Greer, Susana Sheiman).wav
Pre-gap length 0:00:03.00
Peak level 97.7 % Extraction speed 7.8 X Track quality 100.0 % Test CRC 72473624 Copy CRC 72473624 Track not present in AccurateRip database Copy OK
Track 11
Filename C:\EAC\11 - Epíleg Nadalenc.wav
Pre-gap length 0:00:03.00
Peak level 89.6 % Extraction speed 6.6 X Track quality 100.0 % Test CRC C3C9682E Copy CRC C3C9682E Track not present in AccurateRip database Copy OK
None of the tracks are present in the AccurateRip database
No errors occurred
End of status report
---- CUETools DB Plugin V2.1.6
[CTDB TOCID: QvZtyfeLITwd2SrLWtQItvMYX24-] disk not present in databaseSubmit result: QvZtyfeLITwd2SrLWtQItvMYX24- has been uploaded
==== Log checksum 06E61363D01CBC03BDC06D888918944B95738B3C6FB0A5F23FFE1FE9816C0D79 ====

Содержание индексной карты (.CUE)

REM GENRE JazzREM DATE 2012REM DISCID 9B08C10BREM COMMENT "ExactAudioCopy v1.3"PERFORMER "Cor Vivaldi & Ignasi Terraza"TITLE "El 25 de Desembre Swing, Swing, Swing!"FILE "01 - Les dotze van tocant.wav" WAVE TRACK 01 AUDIO TITLE "Les dotze van tocant" PERFORMER "Cor Vivaldi & Ignasi Terraza" INDEX 01 00:00:00 TRACK 02 AUDIO TITLE "Benvinguda" PERFORMER "Cor Vivaldi & Ignasi Terraza" INDEX 00 02:47:12FILE "02 - Benvinguda.wav" WAVE INDEX 01 00:00:00FILE "03 - El desembre congelat.wav" WAVE TRACK 03 AUDIO TITLE "El desembre congelat" PERFORMER "Cor Vivaldi & Ignasi Terraza" INDEX 01 00:00:00 TRACK 04 AUDIO TITLE "L'angel i els pastors" PERFORMER "Cor Vivaldi & Ignasi Terraza" INDEX 00 02:36:71FILE "04 - L'angel i els pastors.wav" WAVE INDEX 01 00:00:00 TRACK 05 AUDIO TITLE "El cant dels ocells" PERFORMER "Cor Vivaldi & Ignasi Terraza" INDEX 00 03:42:53FILE "05 - El cant dels ocells.wav" WAVE INDEX 01 00:00:00 TRACK 06 AUDIO TITLE "El rabada" PERFORMER "Cor Vivaldi & Ignasi Terraza" INDEX 00 03:53:40FILE "06 - El rabada.wav" WAVE INDEX 01 00:00:00 TRACK 07 AUDIO TITLE "El dimoni escuat" PERFORMER "Cor Vivaldi & Ignasi Terraza" INDEX 00 04:01:38FILE "07 - El dimoni escuat.wav" WAVE INDEX 01 00:00:00 TRACK 08 AUDIO TITLE "El noi de la mare" PERFORMER "Cor Vivaldi & Ignasi Terraza" INDEX 00 05:30:33FILE "08 - El noi de la mare.wav" WAVE INDEX 01 00:00:00 TRACK 09 AUDIO TITLE "Sant Josep i la Mare de Deu" PERFORMER "Cor Vivaldi & Ignasi Terraza" INDEX 00 03:20:19FILE "09 - Sant Josep i la Mare de Deu.wav" WAVE INDEX 01 00:00:00 TRACK 10 AUDIO TITLE "Fum, fum, fum" PERFORMER "Cor Vivaldi & Ignasi Terraza" INDEX 00 03:14:09FILE "10 - Fum, fum, fum.wav" WAVE INDEX 01 00:00:00 TRACK 11 AUDIO TITLE "Epileg nadalenc" PERFORMER "Cor Vivaldi & Ignasi Terraza" INDEX 00 04:23:23FILE "11 - Epileg nadalenc.wav" WAVE INDEX 01 00:00:00

Отчет CUETools

[CUETools log; Date: 05.07.2017 0:29:31; Version: 2.1.5][CTDB TOCID: QvZtyfeLITwd2SrLWtQItvMYX24-] found.Track | CTDB Status 1 | (1/1) Accurately ripped 2 | (1/1) Accurately ripped 3 | (1/1) Accurately ripped 4 | (1/1) Accurately ripped 5 | (1/1) Accurately ripped 6 | (1/1) Accurately ripped 7 | (1/1) Accurately ripped 8 | (1/1) Accurately ripped 9 | (1/1) Accurately ripped 10 | (1/1) Accurately ripped 11 | (1/1) Accurately ripped[AccurateRip ID: 000ecb4f-0083e482-9b08c10b] disk not present in database.
Track Peak [ CRC32 ] [W/O NULL] [ LOG ] -- 97,7 [C4461572] [B62B9951] 01 97,7 [4D2B9331] [AF432755] CRC32 02 97,7 [BD4E71CE] [303675FF] CRC32 03 97,7 [FE49827E] [DA20F27A] CRC32 04 97,7 [16481134] [62FFEA9A] CRC32 05 97,7 [912990B9] [BD96D54C] CRC32 06 97,7 [251D5DC9] [4E5D03CC] CRC32 07 97,7 [E2FC3EF1] [1B123EC0] CRC32 08 97,7 [4A8177B2] [B38C1D32] CRC32 09 97,7 [EA024719] [802925C1] CRC32 10 97,7 [72473624] [B5E00D38] CRC32 11 89,6 [C3C9682E] [BF9AE145] CRC32

Об альбоме (сборнике)

Christmas is a dangerous time. Especially if youre an adult, you dont feel the need to get together with family members with whom you hardly speak to during the rest of the year, who are in a critical stage of their umpteenth diet, and from badulaque to the majestic retail centres, the gynaecologists waiting room or the tax-office lift, a conspiracy of shepherds, virgins, Jesus boys and mother of Mary kids twitter in unison in the same old persistent song. These are the dreadful carols, a genre within themselves licensed with rampant persecution and endless repetition which shows no mercy. Torture or perversion, you can choose. Faced with this unstoppable and ancient tradition you dont stand a chance. Maybe thats why a musician as intelligent and cunning as Ignasi Terraza decided a few years ago to put into practise the best of the English proverb: If you cant beat them, join them. And since then, as soon as the winter solstice approaches, weve become accustomed to hearing the (Barcelona) pianists particular, swinging vision of the Christmas classics. Being reckless runs the risk of digging deep into the annoyance, but still allows the possibility of breathing new life into those songs that will finally sound fresh again, as they should do according to folk heritage.
And this is what, Bell over bell, this musician has achieved, in his fearless attempt, a mission that appears to be impossible. To achieve it, he has the complicity of the white voices of the Vivaldi Choir who, with their innocence and simplicity, radiate authentic light.
The hard work of the North American composer Kirby Shaw, a specialist in the harmonisation of collective voices, contributes in good measure to the virtues of the choir. On choosing the lead vocals, the combination of Marta Jobanis lyrical singing, the familiarity of Randy Greer Catalonias own Nat King Cole-, the premiering of Andrea Motis singing in Catalan, Susana Sheimans tremendous contribution and El Duendes flamenco participation, lends a range of aesthetics that enriches each of the pieces and makes up the whole. The rest, by no means least, is made up of first class musicians such as Esteve Pi on the drums, Dimitri Skidanov and Artur Regada on double bass, Joan Chamorro on tenor sax, Isaac Figueres on the cajón and Motis herself on trumpet. All of them, under certain swing coordinates that show the way, head towards soul El desembre congelat -, inviting in Allegro Les dotze van tocant -, swaying in lead Benvinguda remembering the velvet naughty wind of Ben Webster El dimoni escuat-, the silk hands of Hank Jones El rabadà and even the Spanish Touch in a Latin key Fum, fum, fum-. All put together to wish us a Merry Swing and a Happy Jazzy Year! Lets toast with cava, lets rejoice, a Christmas with jazz and choir is well worth it.
-- Pere Pons

Состав

Cor Vivaldi-Petits Cantors de Catalunya
Oscar Boada - conductor
Ignasi Terraza - piano
Dimitri Skidanov - bass
Artur Regada - bass (#7)
Esteve Pi - drums
Marta Jobani (#2), Susana Sheiman (#3,9,10), Joaquín Gomez el Duende (#5), Randy Greer (#8,10) - vocal soloist
Andrea Motis - vocal soloist & trumpet (#4,7)
Joan Chamorro - tenor saxophone (#4,7)
Isaac Figueres - cajon (#5)
Recorded at Estudi Oido, Auditori ONCE, Estudi Rosa Azul and Estudi Temps Record, Barcelona in 2012.

[torrentc.info]_t_5424707.torrent
Торрент: Зарегистрирован ·  [ 2017-08-29 19:18 ] ·  298e446de959fc5366f23c2a92c0e0f242aab452

19 KB

Статус: проверено
Скачан: 0 раз
Размер: 222 MB
Оценка: 
(Голосов: 0)
Сказали спасибо: 0  Спасибо
Похожие темы
[Профиль]    [ЛС]
Показать сообщения:    
Ответить на тему

Текущее время: Сегодня 14:02

Часовой пояс: GMT + 7



Вы не можете начинать темы
Вы не можете отвечать на сообщения
Вы не можете редактировать свои сообщения
Вы не можете удалять свои сообщения
Вы не можете голосовать в опросах
Вы не можете прикреплять файлы к сообщениям
Вы можете скачивать файлы