(Vocal Jazz) [CD] Karin Plato - Blue Again - 2000, FLAC (tracks+.cue), lossless

Ответить на тему
Статистика раздачи [Обновить пиров]
Размер:  244 MB   |    Зарегистрирован:  3 месяца 19 дней   |    Скачан:  0 раз

Полного источника не было: Никогда

 
   
 
 
 
Автор Сообщение

torrentc.info

Создавать темы 29-Авг-2017 19:23

[Цитировать]

Karin Plato - Blue Again Жанр: Vocal Jazz
Носитель: CD
Год издания: 2000
Издатель (лейбл): Stikjazz Music
Номер по каталогу: KVP-2222
Страна исполнителя (группы): Canada
Аудиокодек: FLAC (*.flac)
Тип рипа: tracks+.cue
Битрейт аудио: lossless
Продолжительность: 53:19
Источник (релизер): TestTickles
Наличие сканов в содержимом раздачи: да
Треклист:
01. Takes Two To Tango (3:05)
02. Someone To LIght Up My Life (4:16)
03. Blue Again (4:31)
04. What'll I Do? (4:07)
05. If You Never Come To Me (5:28)
06. No Moon At All (5:14)
07. A Sleepin' Bee (4:18)
08. Fools Rush In (5:03)
09. We Kiss In A Shadow (3:14)
10. December (3:42)
11. Love For Sale (3:20)
12. Spring Will Be A Little Late This Year (3:32)
13. Songbird (3:28)
Personnel:
Karin Plato - vo
Celso Machado - ac-g (2, 5), vo (2)
Bill Coon - el-g (3, 6, 8, 10, 13)
Oliver Gannon - el-g (1, 9, 12)
Torben Oxbol - ac-b (1, 7, 11)
 

Лог создания рипа

EAC extraction logfile from 18. June 2017, 17:01 for CDKarin Plato / Blue Again
Used drive : TSSTcorpDVD+-RW TS-H653B Adapter: 2 ID: 0Read mode : Secure with NO C2, accurate stream, disable cacheRead offset correction : 6Overread into Lead-In and Lead-Out : No
Used output format : Internal WAV Routines 44.100 Hz; 16 Bit; Stereo
Other options : Fill up missing offset samples with silence : Yes Delete leading and trailing silent blocks : No Native Win32 interface for Win NT & 2000
Track 1 Filename C:\Documents and Settings\Desktop\Karin Plato - Blue Again (2000) [FLAC]\01 - Takes Two To Tango.wav
Pre-gap length 0:00:02.00
Peak level 100.0 % Track quality 100.0 % Test CRC 54748157 Copy CRC 54748157 Copy OK
Track 2 Filename C:\Documents and Settings\Desktop\Karin Plato - Blue Again (2000) [FLAC]\02 - Someone To Light Up My Life.wav
Pre-gap length 0:00:02.00
Peak level 100.0 % Track quality 100.0 % Test CRC 91DDB10F Copy CRC 91DDB10F Copy OK
Track 3 Filename C:\Documents and Settings\Desktop\Karin Plato - Blue Again (2000) [FLAC]\03 - Blue Again.wav
Pre-gap length 0:00:02.00
Peak level 100.0 % Track quality 100.0 % Test CRC 3D1A89AC Copy CRC 3D1A89AC Copy OK
Track 4 Filename C:\Documents and Settings\Desktop\Karin Plato - Blue Again (2000) [FLAC]\04 - What'll I Do .wav
Pre-gap length 0:00:02.00
Peak level 100.0 % Track quality 100.0 % Test CRC 31A81D41 Copy CRC 31A81D41 Copy OK
Track 5 Filename C:\Documents and Settings\Desktop\Karin Plato - Blue Again (2000) [FLAC]\05 - If You Never Come To Me.wav
Pre-gap length 0:00:02.00
Peak level 100.0 % Track quality 100.0 % Test CRC 623E16B6 Copy CRC 623E16B6 Copy OK
Track 6 Filename C:\Documents and Settings\Desktop\Karin Plato - Blue Again (2000) [FLAC]\06 - No Moon At All.wav
Pre-gap length 0:00:02.00
Peak level 100.0 % Track quality 100.0 % Test CRC 9C9FC673 Copy CRC 9C9FC673 Copy OK
Track 7 Filename C:\Documents and Settings\Desktop\Karin Plato - Blue Again (2000) [FLAC]\07 - A Sleepin' Bee.wav
Pre-gap length 0:00:02.00
Peak level 100.0 % Track quality 100.0 % Test CRC 1803B05A Copy CRC 1803B05A Copy OK
Track 8 Filename C:\Documents and Settings\Desktop\Karin Plato - Blue Again (2000) [FLAC]\08 - Fools Rush In.wav
Pre-gap length 0:00:02.00
Peak level 100.0 % Track quality 99.9 % Test CRC 8F516E37 Copy CRC 8F516E37 Copy OK
Track 9 Filename C:\Documents and Settings\Desktop\Karin Plato - Blue Again (2000) [FLAC]\09 - We Kiss In A Shadow.wav
Pre-gap length 0:00:02.00
Peak level 100.0 % Track quality 100.0 % Test CRC 5EF05390 Copy CRC 5EF05390 Copy OK
Track 10 Filename C:\Documents and Settings\Desktop\Karin Plato - Blue Again (2000) [FLAC]\10 - December.wav
Pre-gap length 0:00:02.00
Peak level 100.0 % Track quality 100.0 % Test CRC ED14BC41 Copy CRC ED14BC41 Copy OK
Track 11 Filename C:\Documents and Settings\Desktop\Karin Plato - Blue Again (2000) [FLAC]\11 - Love For Sale.wav
Pre-gap length 0:00:02.00
Peak level 100.0 % Track quality 100.0 % Test CRC 8F9B4DFD Copy CRC 8F9B4DFD Copy OK
Track 12 Filename C:\Documents and Settings\Desktop\Karin Plato - Blue Again (2000) [FLAC]\12 - Spring Will Be A Little Late This Year.wav
Pre-gap length 0:00:02.00
Peak level 100.0 % Track quality 99.9 % Test CRC 0400448D Copy CRC 0400448D Copy OK
Track 13 Filename C:\Documents and Settings\Desktop\Karin Plato - Blue Again (2000) [FLAC]\13 - Songbird.wav
Pre-gap length 0:00:02.00
Peak level 100.0 % Track quality 100.0 % Test CRC 09D9DF2A Copy CRC 09D9DF2A Copy OK
No errors occured
End of status report

Содержание индексной карты (.CUE)

REM GENRE JazzREM DATE 2000REM DISCID BB0C7E0DREM COMMENT "ExactAudioCopy v0.95b4"PERFORMER "Karin Plato"TITLE "Blue Again"FILE "01 - Takes Two To Tango.wav" WAVE TRACK 01 AUDIO TITLE "Takes Two To Tango" PERFORMER "Karin Plato" INDEX 01 00:00:00 TRACK 02 AUDIO TITLE "Someone To Light Up My Life" PERFORMER "Karin Plato" INDEX 00 03:03:15FILE "02 - Someone To Light Up My Life.wav" WAVE INDEX 01 00:00:00 TRACK 03 AUDIO TITLE "Blue Again" PERFORMER "Karin Plato" INDEX 00 04:14:19FILE "03 - Blue Again.wav" WAVE INDEX 01 00:00:00 TRACK 04 AUDIO TITLE "What'll I Do?" PERFORMER "Karin Plato" INDEX 00 04:28:39FILE "04 - What'll I Do.wav" WAVE INDEX 01 00:00:00 TRACK 05 AUDIO TITLE "If You Never Come To Me" PERFORMER "Karin Plato" INDEX 00 04:05:25FILE "05 - If You Never Come To Me.wav" WAVE INDEX 01 00:00:00 TRACK 06 AUDIO TITLE "No Moon At All" PERFORMER "Karin Plato" INDEX 00 05:25:67FILE "06 - No Moon At All.wav" WAVE INDEX 01 00:00:00 TRACK 07 AUDIO TITLE "A Sleepin' Bee" PERFORMER "Karin Plato" INDEX 00 05:11:66FILE "07 - A Sleepin' Bee.wav" WAVE INDEX 01 00:00:00 TRACK 08 AUDIO TITLE "Fools Rush In" PERFORMER "Karin Plato" INDEX 00 04:16:19FILE "08 - Fools Rush In.wav" WAVE INDEX 01 00:00:00 TRACK 09 AUDIO TITLE "We Kiss In A Shadow" PERFORMER "Karin Plato" INDEX 00 05:01:36FILE "09 - We Kiss In A Shadow.wav" WAVE INDEX 01 00:00:00 TRACK 10 AUDIO TITLE "December" PERFORMER "Karin Plato" INDEX 00 03:11:39FILE "10 - December.wav" WAVE INDEX 01 00:00:00 TRACK 11 AUDIO TITLE "Love For Sale" PERFORMER "Karin Plato" INDEX 00 03:39:57FILE "11 - Love For Sale.wav" WAVE INDEX 01 00:00:00 TRACK 12 AUDIO TITLE "Spring Will Be A Little Late This Year" PERFORMER "Karin Plato" INDEX 00 03:18:25FILE "12 - Spring Will Be A Little Late This Year.wav" WAVE INDEX 01 00:00:00 TRACK 13 AUDIO TITLE "Songbird" PERFORMER "Karin Plato" INDEX 00 03:30:11FILE "13 - Songbird.wav" WAVE INDEX 01 00:00:00

[torrentc.info]_t_5425391.torrent
Торрент: Зарегистрирован ·  [ 2017-08-29 19:18 ] ·  e5af78db2d1a396f80153cb673ef68e7cbe1867e

21 KB

Статус: проверено
Скачан: 0 раз
Размер: 244 MB
Оценка: 
(Голосов: 0)
Сказали спасибо: 0  Спасибо
Похожие темы
[Профиль]    [ЛС]
Показать сообщения:    
Ответить на тему

Текущее время: Сегодня 13:49

Часовой пояс: GMT + 7



Вы не можете начинать темы
Вы не можете отвечать на сообщения
Вы не можете редактировать свои сообщения
Вы не можете удалять свои сообщения
Вы не можете голосовать в опросах
Вы не можете прикреплять файлы к сообщениям
Вы можете скачивать файлы