(NDT, darkwve, gothic rock) VA - Magic of the place - 1996, Flac (image+.cue), lossless

Ответить на тему
Статистика раздачи [Обновить пиров]
Размер:  506 MB   |    Зарегистрирован:  1 год 1 месяц   |    Скачан:  0 раз

Полного источника не было: Никогда

 
   
 
 
 
Автор Сообщение

torrentc.info

Создавать темы 18-Авг-2017 15:06

[Цитировать]

Amobenklang - VA - 1996 - Magic of the place-Жанр: NDT, darkwve, gothic rock | Носитель: CD | Страна-производитель диска (релиза): Germany | Год издания: 1996 | Издатель (лейбл): Amöbenklang | Номер по каталогу: 1386 | Аудиокодек: FLAC (*.flac) | Тип рипа: image+.cue | Битрейт аудио: lossless | Продолжительность: 01:12:37 | Источник: Torrentc amoebenklang.de | Наличие сканов в содержимом раздачи: да-Треклист:
01 – Trysticia - Mirrors 3:40
02 – Dead Souls - Rising The Death Of The Lovers 3:22
03 – Judith - Separation 4:12
04 – Leib & Seele - Para 3:42
05 – Dead Material - Headlong 4:04
06 – The Faith - Traumland 3:30
07 – State Of Emergency - Trümmerland 2:58
08 – The Doubt - In The Paradise 5:42
09 – adiaphora - Verlorene Seele 3:45
10 – Underwear - Project The Day You'll Come 3:32
11 – Sacred Implant - A Perfect Hell In A Prison Cell 4:32
12 – Isecs - Einheitsschritt 3:47
13 – Manipulation - Vielleicht 4:03
14 – das Buch & das Bild - Kino 3:44
15 – All Living Fear - Inside My Mind 3:12
16 – Meridian - Revelation 3:55
17 – Automatic Noir - Kavkaz 6:28
18 – Conscientia Peccati - Arcadia 3:07
19 – VaNi -Kingdom 1:19

Лог создания рипа

Exact Audio Copy V1.3 from 2. September 2016
Отчёт EAC об извлечении, выполненном 5. августа 2017, 15:52
Various Artists / Magic of the Place
Дисковод: HL-DT-STDVDRAM GUE1N Adapter: 1 ID: 0
Режим чтения : ДостоверностьИспользование точного потока : ДаОтключение кэша аудио : ДаИспользование указателей C2 : Нет
Коррекция смещения при чтении : 6Способность читать области Lead-in и Lead-out : НетЗаполнение пропущенных сэмплов тишиной : ДаУдаление блоков с тишиной в начале и конце : НетПри вычислениях CRC использовались нулевые сэмплы : ДаИнтерфейс : Встроенный Win32-интерфейс для Win NT/2000
Выходной формат : Пользовательский кодировщикВыбранный битрейт : 128 kBit/sКачество : ВысокийДобавление ID3-тега : НетУтилита сжатия : C:\Program Files (x86)\Exact Audio Copy\Flac 2017\flac.exeДополнительные параметры : -V -8 -T "Date=%year%" -T "Genre=%genre%" %source%
TOC извлечённого CD
Трек | Старт | Длительность | Начальный сектор | Конечный сектор --------------------------------------------------------------------- 1 | 0:00.60 | 3:40.06 | 60 | 16565 2 | 3:40.66 | 3:22.62 | 16566 | 31777 3 | 7:03.53 | 4:12.29 | 31778 | 50706 4 | 11:16.07 | 3:42.49 | 50707 | 67405 5 | 14:58.56 | 4:04.44 | 67406 | 85749 6 | 19:03.25 | 3:30.71 | 85750 | 101570 7 | 22:34.21 | 2:58.23 | 101571 | 114943 8 | 25:32.44 | 5:42.73 | 114944 | 140666 9 | 31:15.42 | 3:45.30 | 140667 | 157571 10 | 35:00.72 | 3:32.38 | 157572 | 173509 11 | 38:33.35 | 4:23.59 | 173510 | 193293 12 | 42:57.19 | 3:47.53 | 193294 | 210371 13 | 46:44.72 | 4:03.70 | 210372 | 228666 14 | 50:48.67 | 3:44.47 | 228667 | 245513 15 | 54:33.39 | 3:12.59 | 245514 | 259972 16 | 57:46.23 | 3:55.67 | 259973 | 277664 17 | 61:42.15 | 6:28.39 | 277665 | 306803 18 | 68:10.54 | 3:07.30 | 306804 | 320858 19 | 71:18.09 | 1:19.51 | 320859 | 326834
Характеристики диапазона извлечения и сообщения об ошибках
Выбранный диапазон
Имя файла C:\Users\User\Desktop\VA - 1996 - Magic of the place.wav
Пиковый уровень 100.0 % Скорость извлечения 2.1 X Качество диапазона 99.9 % CRC теста C0DB9BA9 CRC копии C0DB9BA9 Копирование... OK
Ошибок не произошло
AccurateRip: сводка
Трек 1 : извлечено точно (доверие 1) [9F9BAB98] (AR v2)Трек 2 : извлечено точно (доверие 1) [7328A762] (AR v2)Трек 3 : извлечено точно (доверие 1) [73EF8D32] (AR v2)Трек 4 : извлечено точно (доверие 1) [2996338E] (AR v2)Трек 5 : извлечено точно (доверие 1) [3EF8DF41] (AR v2)Трек 6 : извлечено точно (доверие 1) [4DB7D19B] (AR v2)Трек 7 : извлечено точно (доверие 1) [258BB23A] (AR v2)Трек 8 : извлечено точно (доверие 1) [E3E3FB33] (AR v2)Трек 9 : извлечено точно (доверие 1) [8A2321E8] (AR v2)Трек 10 : извлечено точно (доверие 1) [1BFE414B] (AR v2)Трек 11 : извлечено точно (доверие 1) [E14EA4A1] (AR v2)Трек 12 : извлечено точно (доверие 1) [80DD300B] (AR v2)Трек 13 : извлечено точно (доверие 1) [513AD62E] (AR v2)Трек 14 : извлечено точно (доверие 1) [DA23E537] (AR v2)Трек 15 : извлечено точно (доверие 1) [39FFF8E4] (AR v2)Трек 16 : извлечено точно (доверие 1) [73A5763A] (AR v2)Трек 17 : извлечено точно (доверие 1) [1C06C267] (AR v2)Трек 18 : извлечено точно (доверие 1) [68D96615] (AR v2)Трек 19 : извлечено точно (доверие 1) [2D823DD0] (AR v2)
Все треки извлечены точно
Конец отчёта
---- CUETools DB Plugin V2.1.6
[CTDB TOCID: B9jbPrNwQpfQ4ozqV1DH8HEJ13M-] foundSubmit result: already submittedTrack | CTDB Status 1 | (2/2) Accurately ripped 2 | (2/2) Accurately ripped 3 | (2/2) Accurately ripped 4 | (2/2) Accurately ripped 5 | (2/2) Accurately ripped 6 | (2/2) Accurately ripped 7 | (2/2) Accurately ripped 8 | (2/2) Accurately ripped 9 | (2/2) Accurately ripped 10 | (2/2) Accurately ripped 11 | (2/2) Accurately ripped 12 | (2/2) Accurately ripped 13 | (2/2) Accurately ripped 14 | (2/2) Accurately ripped 15 | (2/2) Accurately ripped 16 | (2/2) Accurately ripped 17 | (2/2) Accurately ripped 18 | (2/2) Accurately ripped 19 | (2/2) Accurately ripped
==== Контрольная сумма отчёта 8DF6479EAC05540643B763AE3DECFE1AA105976409D99679E7ABE7B73E7438B0 ====

Содержание индексной карты (.CUE)

REM GENRE DarkwaveREM DATE 1996REM DISCID 00110513REM COMMENT ExactAudioCopy v1.3PERFORMER "Various Artists"TITLE "Magic of the place"FILE "VA - 1996 - Magic of the place.flac" WAVE TRACK 01 AUDIO TITLE "Mirrors" PERFORMER "Trysticia" INDEX 00 00:00:00 INDEX 01 00:00:60 TRACK 02 AUDIO TITLE "The death of the lovers" PERFORMER "Dead souls rising" INDEX 00 03:39:03 INDEX 01 03:40:66 TRACK 03 AUDIO TITLE "Separation" PERFORMER "Judith" INDEX 00 07:01:50 INDEX 01 07:03:53 TRACK 04 AUDIO TITLE "Para" PERFORMER "Leib & Seele" INDEX 00 11:14:19 INDEX 01 11:16:07 TRACK 05 AUDIO TITLE "Headlong" PERFORMER "Dead material" INDEX 00 14:56:68 INDEX 01 14:58:56 TRACK 06 AUDIO TITLE "Traumland" PERFORMER "The faith" INDEX 00 19:01:37 INDEX 01 19:03:25 TRACK 07 AUDIO TITLE "Trummerland" PERFORMER "State of emergency" INDEX 00 22:32:03 INDEX 01 22:34:21 TRACK 08 AUDIO TITLE "In the paradise" PERFORMER "The doubt" INDEX 00 25:31:03 INDEX 01 25:32:44 TRACK 09 AUDIO TITLE "Verlorene Seele" PERFORMER "Adiaphora" INDEX 00 31:13:54 INDEX 01 31:15:42 TRACK 10 AUDIO TITLE "The day you’ll come" PERFORMER "Underwear project" INDEX 00 34:59:16 INDEX 01 35:00:72 TRACK 11 AUDIO TITLE "A perfect hell in a prison cell" PERFORMER "Sacred implant" INDEX 00 38:31:47 INDEX 01 38:33:35 TRACK 12 AUDIO TITLE "Einheitsschritt" PERFORMER "Isecs" INDEX 00 42:55:31 INDEX 01 42:57:19 TRACK 13 AUDIO TITLE "Vielleicht" PERFORMER "Manipulation" INDEX 00 46:43:09 INDEX 01 46:44:72 TRACK 14 AUDIO TITLE "Kino" PERFORMER "Das Buch & Das Bild" INDEX 00 50:47:11 INDEX 01 50:48:67 TRACK 15 AUDIO TITLE "Inside my mind" PERFORMER "All living fear" INDEX 00 54:31:59 INDEX 01 54:33:39 TRACK 16 AUDIO TITLE "Revelations" PERFORMER "Meridian" INDEX 00 57:44:28 INDEX 01 57:46:23 TRACK 17 AUDIO TITLE "Kavkaz" PERFORMER "Automatic noir" INDEX 00 61:40:27 INDEX 01 61:42:15 TRACK 18 AUDIO TITLE "Arcadia" PERFORMER "Conscientia peccati" INDEX 00 68:08:51 INDEX 01 68:10:54 TRACK 19 AUDIO TITLE "Kingdom" PERFORMER "VaNi" INDEX 00 71:15:17 INDEX 01 71:18:09


[torrentc.info]_t_5437475.torrent
Торрент: Зарегистрирован ·  [ 2017-08-18 15:06 ] ·  3f348933d61066687ee187036672f0da1c85fefa

21 KB

Статус: проверено
Скачан: 0 раз
Размер: 506 MB
Оценка: 
(Голосов: 0)
Сказали спасибо: 0  Спасибо
Похожие темы
[Профиль]    [ЛС]
Показать сообщения:    
Ответить на тему

Текущее время: Сегодня 01:19

Часовой пояс: GMT + 7



Вы не можете начинать темы
Вы не можете отвечать на сообщения
Вы не можете редактировать свои сообщения
Вы не можете удалять свои сообщения
Вы не можете голосовать в опросах
Вы не можете прикреплять файлы к сообщениям
Вы можете скачивать файлы