Anna Nalick - In The Rough [2005, Pop, Pop Rock, HDTV 1080i]

Ответить на тему
Статистика раздачи [Обновить пиров]
Размер:  353 MB   |    Зарегистрирован:  1 месяц 5 дней   |    Скачан:  1 раз

Полного источника не было: 15 дней

 
   
 
 
 
Автор Сообщение

torrentc.info

Создавать темы 16-Авг-2017 01:06

[Цитировать]

Anna Nalick - In The Rough
Жанр: Pop, Pop Rock
Продолжительность: 00:03:43
Год выхода: 2005
Качество: HDTV
Разрешение видео/развертка: 1080i
Формат файла: TS
Видео кодек: MPEG2
Аудио кодек: AC3
Видео: MPEG2, 1920x1080 (16:9), 29.97 fps, 12.2 Mbps
Аудио: AC3, 48 kHz, stereo, 384 kbps

Отчёт MediaInfo

ОбщееИдентификатор : 1 (0x1)Полное имя : C:\Anna Nalick - In The Rough.tsФормат файла : MPEG-TSРазмер файла : 353 МбайтПродолжительность : 3 м. 43 с.Режим общего битрейта : ПеременныйОбщий поток : 13,2 Мбит/секОграничение по возрасту : TV-PG
ВидеоИдентификатор : 17 (0x11)Идентификатор меню : 1 (0x1)Формат файла : MPEG VideoВерсия формата : Version 2Профиль формата : Main@HighПараметр BVOP формата : ДаПараметр матрицы формата : ВыборочнаяПараметр GOP формата : VariableИдентификатор кодека : 2Продолжительность : 3 м. 43 с.Вид битрейта : ПеременныйБитрейт : 12,2 Мбит/секМаксимальный битрейт : 19,0 Мбит/секШирина : 1920 пикселейВысота : 1080 пикселейСоотношение сторон : 16:9Частота кадров : 29,970 (30000/1001) кадров/секСтандарт вещания : ComponentЦветовое пространство : YUVСубдискретизация насыщенности : 4:2:0Битовая глубина : 8 битМетод сжатия : С потерямиБит/(Пиксели*Кадры) : 0.196Размер потока : 324 Мбайт (92%)Основные цвета : BT.709Характеристики трансфера : BT.709Коэффициенты матрицы : BT.709
АудиоИдентификатор : 20 (0x14)Идентификатор меню : 1 (0x1)Формат файла : AC-3Формат файла/Информация : Audio Coding 3Расширение режима : CM (complete main)Параметр Endianness формата : BigИдентификатор кодека : 129Продолжительность : 3 м. 43 с.Вид битрейта : ПостоянныйБитрейт : 384 Кбит/секКаналы : 2 каналаРасположение каналов : Front: L RЧастота : 48,0 КГцЧастота кадров : 31,250 кадров/сек (1536 spf)Метод сжатия : С потерямиЗадержка видео : -883 мс.Размер потока : 10,2 Мбайт (3%)Язык : English
Текст #1Идентификатор : 17 (0x11)-CC1Идентификатор меню : 1 (0x1)Формат файла : EIA-608Режим смешивания : A/53 / DTVCC TransportРежим смешивания, доп. информация : Muxed in Video #1Продолжительность : 3 м. 43 с.Вид битрейта : ПостоянныйРазмер потока : 0,00 байт (0%)
Текст #2Идентификатор : 17 (0x11)-1Идентификатор меню : 1 (0x1)Формат файла : EIA-708Режим смешивания : A/53 / DTVCC TransportРежим смешивания, доп. информация : Muxed in Video #1Продолжительность : 3 м. 43 с.Вид битрейта : ПостоянныйРазмер потока : 0,00 байт (0%)

Скриншоты


[torrentc.info]_t_2670882.torrent
Торрент: Зарегистрирован ·  [ 2017-08-16 01:06 ] ·  b16421e6107a738cd9e8502869a02af611629810

14 KB

Статус: проверено
Скачан: 1 раз
Размер: 353 MB
Оценка: 
(Голосов: 0)
Сказали спасибо: 0  Спасибо
Похожие темы
[Профиль]    [ЛС]
Показать сообщения:    
Ответить на тему

Текущее время: Сегодня 15:37

Часовой пояс: GMT + 7



Вы не можете начинать темы
Вы не можете отвечать на сообщения
Вы не можете редактировать свои сообщения
Вы не можете удалять свои сообщения
Вы не можете голосовать в опросах
Вы не можете прикреплять файлы к сообщениям
Вы можете скачивать файлы