Stan Van Samang - Live 2009 [2009, Pop, Pop Rock, Soft Rock, HDTV 1080i]

Ответить на тему
Статистика раздачи [Обновить пиров]
Размер:  1.72 GB   |    Зарегистрирован:  3 месяца 7 дней   |    Скачан:  1 раз

Полного источника не было: 2 месяца 7 дней

 
   
 
 
 
Автор Сообщение

torrentc.info

Создавать темы 16-Авг-2017 01:06

[Цитировать]

Stan Van Samang - Live 2009
Жанр: Pop, Pop Rock, Soft Rock
Продолжительность: 00:25:55
Год выхода: 2009
Треклист:
01. Simple Life
02. Welcome Home
03. Diggin' in the Dirt
04. Scars
05. I Didn't Know
Доп. информация:
Stan Van Samang (род. 19 марта 1979) - бельгийский актёр и певец. Снимался в фильмах Windkracht 10: Koksijde Rescue (2007) и Vermist (2007). В 2006 году на национальной телевизионной программе Steracteur Sterartiest (VRT) проявил себя как талантливый музыкант. 23 ноября 2007 года выпустил свой первый альбом "Welcome Home", и хит "Scars" с этого альбома занял первое место в национальном хит-параде "Ultratop 50" и продержался там 5 недель.
Официальный сайт и ещё один.
Качество: HDTV
Разрешение видео/развертка: 1080i
Формат файла: TS
Видео кодек: H.264
Аудио кодек: MP2
Видео: MPEG-4 AVC, 1920x1080 (16:9), 25 fps, 8762 kbps
Аудио: MP2, 48 kHz, stereo, 256 kbps

Отчёт MediaInfo

ОбщееИдентификатор : 17 (0x11)Полное имя : C:\2009-03-30_Stan Van Samang_HD1080i.tsФормат файла : MPEG-TSРазмер файла : 1,72 ГбайтПродолжительность : 25 м.Режим общего битрейта : ПеременныйОбщий поток : 9489 Кбит/сек
ВидеоИдентификатор : 1291 (0x50B)Идентификатор меню : 129 (0x81)Формат файла : AVCФормат файла/Информация : Advanced Video CodecПрофиль формата : High@L4Параметр CABAC формата : ДаПараметр ReFrames формата : 2 кадраПараметр GOP формата : M=3, N=12Идентификатор кодека : 27Продолжительность : 25 м.Битрейт : 8762 Кбит/секШирина : 1920 пикселейВысота : 1080 пикселейСоотношение сторон : 16:9Частота кадров : 25,000 кадров/секЦветовое пространство : YUVСубдискретизация насыщенности : 4:2:0Битовая глубина : 8 битТип развёртки : MBAFFМетод сохранения типа развёртки : Чередующиеся поляПорядок развёртки : Верхнее поле первоеБит/(Пиксели*Кадры) : 0.169Размер потока : 1,58 Гбайт (92%)
АудиоИдентификатор : 1292 (0x50C)Идентификатор меню : 129 (0x81)Формат файла : MPEG AudioВерсия формата : Version 1Профиль формата : Layer 2Идентификатор кодека : 4Продолжительность : 25 м.Вид битрейта : ПостоянныйБитрейт : 256 Кбит/секКаналы : 2 каналаЧастота : 48,0 КГцМетод сжатия : С потерямиЗадержка видео : -484 мс.Размер потока : 47,4 Мбайт (3%)Язык : English
МенюИдентификатор : 1290 (0x50A)Идентификатор меню : 129 (0x81)Продолжительность : 25 м.Список : 1291 (0x50B) (AVC) / 1292 (0x50C) (MPEG Audio, English)Язык : / English

[torrentc.info]_t_1765433.torrent
Торрент: Зарегистрирован ·  [ 2017-08-16 01:06 ] ·  ea6974a36a8a15803149edee1fa8a81ae858a042

18 KB

Статус: проверено
Скачан: 1 раз
Размер: 1.72 GB
Оценка: 
(Голосов: 0)
Сказали спасибо: 0  Спасибо
Похожие темы
[Профиль]    [ЛС]
Показать сообщения:    
Ответить на тему

Текущее время: Сегодня 23:28

Часовой пояс: GMT + 7



Вы не можете начинать темы
Вы не можете отвечать на сообщения
Вы не можете редактировать свои сообщения
Вы не можете удалять свои сообщения
Вы не можете голосовать в опросах
Вы не можете прикреплять файлы к сообщениям
Вы можете скачивать файлы