(Doom/Gothic/Death metal) [CD] VA - The Holy Bible Vol.1 (Yearning, Nightfall, Septic Flesh...) - 1996, FLAC (image+.cue), lossless

Ответить на тему
Статистика раздачи [Обновить пиров]
Размер:  400 MB   |    Зарегистрирован:  1 год   |    Скачан:  0 раз

Полного источника не было: Никогда

 
   
 
 
 
Автор Сообщение

torrentc.info

Создавать темы 20-Июл-2017 22:56

[Цитировать]

VA - The Holy Bible Vol.1 (Yearning, Nightfall, Septic Flesh...)
Жанр: Doom/Gothic/Death metal
Носитель: CD
Год издания: 1996
Издатель (лейбл): Holy Records
Номер по каталогу: HOLY19CD
Аудиокодек: FLAC (*.flac)
Тип рипа: image+.cue
Битрейт аудио: lossless
Продолжительность: 01:02:36
Источник (релизер): Rex9
Наличие сканов в содержимом раздачи: нет
Треклист:
01. Yearning - Autumn Funeral
02. Nightfall - Black Leather cult
03. Serenity - Skin Of The Soul
04. Orphaned Land - Disciples Of The Sacred Oath
05. Elend - Birds Of Dawn
06. On Thorns I Lay - The Higher Color Of Mind (Wrong Is Right)
07. Tristitia - Prelude Of Solitude
08. Misanthrope - Reve Lezarde
09. Godsend - Wolf's Den
10. Septic Flesh - Woman Of The Rings

Лог создания рипа

Exact Audio Copy V1.2 from 12. August 2016
Отчёт EAC об извлечении, выполненном 16. июля 2017, 20:16
V / A / The Holy Bible
Дисковод: HL-DT-STDVDRAM GT34N Adapter: 1 ID: 0
Режим чтения : ДостоверностьИспользование точного потока : ДаОтключение кэша аудио : ДаИспользование указателей C2 : Нет
Коррекция смещения при чтении : 103Способность читать области Lead-in и Lead-out : НетЗаполнение пропущенных сэмплов тишиной : ДаУдаление блоков с тишиной в начале и конце : НетПри вычислениях CRC использовались нулевые сэмплы : ДаИнтерфейс : Встроенный Win32-интерфейс для Win NT/2000
Выходной формат : Пользовательский кодировщикВыбранный битрейт : 128 kBit/sКачество : ВысокийДобавление ID3-тега : НетУтилита сжатия : C:\Program Files (x86)\Exact Audio Copy\Flac\flac.exeДополнительные параметры : -V -8 -T "Date=%year%" -T "Genre=%genre%" %source%
TOC извлечённого CD
Трек | Старт | Длительность | Начальный сектор | Конечный сектор --------------------------------------------------------------------- 1 | 0:00.00 | 5:55.20 | 0 | 26644 2 | 5:55.20 | 4:49.73 | 26645 | 48392 3 | 10:45.18 | 5:37.56 | 48393 | 73723 4 | 16:22.74 | 5:16.07 | 73724 | 97430 5 | 21:39.06 | 12:10.57 | 97431 | 152237 6 | 33:49.63 | 4:31.15 | 152238 | 172577 7 | 38:21.03 | 6:20.69 | 172578 | 201146 8 | 44:41.72 | 6:52.27 | 201147 | 232073 9 | 51:34.24 | 4:25.72 | 232074 | 252020 10 | 56:00.21 | 6:36.14 | 252021 | 281734
Характеристики диапазона извлечения и сообщения об ошибках
Выбранный диапазон
Имя файла C:\Загрузка\V - A , The Holy Bible.wav
Пиковый уровень 97.7 % Скорость извлечения 2.2 X Качество диапазона 100.0 % CRC теста 6CD6F836 CRC копии 6CD6F836 Копирование... OK
Ошибок не произошло
AccurateRip: сводка
Трек 1 : извлечено точно (доверие 5) [424E991C] (AR v2)Трек 2 : извлечено точно (доверие 5) [15E8CA0D] (AR v2)Трек 3 : извлечено точно (доверие 5) [BDFC0831] (AR v2)Трек 4 : извлечено точно (доверие 5) [BCC6AF12] (AR v2)Трек 5 : извлечено точно (доверие 5) [9687C361] (AR v2)Трек 6 : извлечено точно (доверие 5) [F6B0309D] (AR v2)Трек 7 : извлечено точно (доверие 5) [6E69527C] (AR v2)Трек 8 : извлечено точно (доверие 5) [71EC1427] (AR v2)Трек 9 : извлечено точно (доверие 5) [FBCA8747] (AR v2)Трек 10 : извлечено точно (доверие 5) [076C8182] (AR v2)
Все треки извлечены точно
Конец отчёта
==== Контрольная сумма отчёта B0C45039B196886F5454B14925C342F6F115256FA14E9E7199ACA1E9C0334287 ====


[torrentc.info]_t_5429522.torrent
Торрент: Зарегистрирован ·  [ 2017-07-20 22:48 ] ·  6c1ce3f63e2e775588eb5097cc13cce7d883df96

16 KB

Статус: проверено
Скачан: 0 раз
Размер: 400 MB
Оценка: 
(Голосов: 0)
Сказали спасибо: 0  Спасибо
Похожие темы
[Профиль]    [ЛС]
Показать сообщения:    
Ответить на тему

Текущее время: Сегодня 00:15

Часовой пояс: GMT + 7



Вы не можете начинать темы
Вы не можете отвечать на сообщения
Вы не можете редактировать свои сообщения
Вы не можете удалять свои сообщения
Вы не можете голосовать в опросах
Вы не можете прикреплять файлы к сообщениям
Вы можете скачивать файлы