(Vocal Jazz) [CD] Bobby Short - Bobby Short Loves Cole Porter (1971), Guess Who\'s in Town: The Songs of Andy Razaf (1987) (2CD) - 2001, FLAC (tracks+.cue), lossless

Ответить на тему
Статистика раздачи [Обновить пиров]
Размер:  587 MB   |    Зарегистрирован:  6 месяцев 3 дня   |    Скачан:  0 раз

Полного источника не было: Никогда

 
   
 
 
 
Автор Сообщение

torrentc.info

Создавать темы 15-Июн-2017 05:42

[Цитировать]

Bobby Short - Bobby Short Loves Cole Porter, Guess Who's in Town: The Songs of Andy Razaf
Жанр: Vocal Jazz
Носитель: CD
Страна-производитель диска (релиза): США
Год издания: 2001
Издатель (лейбл): Collectables/Atlantic/Rhino
Номер по каталогу: COL-CD-6844
Аудиокодек: FLAC (*.flac)
Тип рипа: tracks+.cue
Битрейт аудио: lossless
Продолжительность: 1:49:12
Источник (релизер): kashin
Наличие сканов в содержимом раздачи: нет

CD1 - Bobby Short Loves Cole Porter (1971) {70:15}

01. Rap Tap on Wood (2:40)
02. You've Got That Thing (3:26)
03. You Don't Know Paree (3:11)
04. Pilot Me (2:47)
05. Katie Went to Haiti (4:43)
06. How's Your Romance (2:24)
07. At Long Last Love (4:21)
08. By Candlelight (2:27)
09. So Near and Yet So Far (2:54)
10. How Could We Be Wrong (3:19)
11. Hot-House Rose (2:33)
12. Let's Fly Away (2:49)
13. Why Shouldn't I (4:48)
14. Once Upon a Time (2:11)
15. Weren't We Fools (4:13)
16. Do I Love You (2:27)
17. I've Got You on My Mind (3:10)
18. Where Have You Been (3:51)
19. I Hate You, Darling (3:10)
20. I'm in Love Again (2:28)
21. Just One of Those Things (2:30)
22. Why Don't We Try Staying Home (3:53)

Лог создания рипа

X Lossless Decoder version 20141129 (148.1)
XLD extraction logfile from 2016-04-09 17:28:13 -0400
Bobby Short / Bobby Short Loves Cole Porter
Used drive : MATSHITA DVD-R UJ-8A8 (revision HB14)Media type : Pressed CD
Ripper mode : XLD Secure RipperDisable audio cache : OK for the drive with a cache less than 1375KiBMake use of C2 pointers : NORead offset correction : 102Max retry count : 20Gap status : Analyzed, Appended (except HTOA)
TOC of the extracted CD Track | Start | Length | Start sector | End sector --------------------------------------------------------- 1 | 00:00:00 | 02:40:13 | 0 | 12012 2 | 02:40:13 | 03:26:10 | 12013 | 27472 3 | 06:06:23 | 03:11:01 | 27473 | 41798 4 | 09:17:24 | 02:47:26 | 41799 | 54349 5 | 12:04:50 | 04:43:24 | 54350 | 75598 6 | 16:47:74 | 02:24:21 | 75599 | 86419 7 | 19:12:20 | 04:20:72 | 86420 | 105991 8 | 23:33:17 | 02:27:00 | 105992 | 117016 9 | 26:00:17 | 02:53:60 | 117017 | 130051 10 | 28:54:02 | 03:19:05 | 130052 | 144981 11 | 32:13:07 | 02:32:54 | 144982 | 156435 12 | 34:45:61 | 02:48:38 | 156436 | 169073 13 | 37:34:24 | 04:47:66 | 169074 | 190664 14 | 42:22:15 | 02:11:33 | 190665 | 200522 15 | 44:33:48 | 04:12:42 | 200523 | 219464 16 | 48:46:15 | 02:26:55 | 219465 | 230469 17 | 51:12:70 | 03:10:03 | 230470 | 244722 18 | 54:22:73 | 03:50:74 | 244723 | 262046 19 | 58:13:72 | 03:10:34 | 262047 | 276330 20 | 61:24:31 | 02:28:20 | 276331 | 287450 21 | 63:52:51 | 02:29:49 | 287451 | 298674 22 | 66:22:25 | 03:53:08 | 298675 | 316157
List of alternate offset correction values # | Absolute | Relative | Confidence ------------------------------------------ 1 | -424 | -526 | 1
AccurateRip Summary (DiscID: 0037a8e3-037aae0e-5b107716) Track 01 : Not Found Track 02 : Not Found Track 03 : Not Found Track 04 : Not Found Track 05 : Not Found Track 06 : Not Found Track 07 : Not Found Track 08 : Not Found Track 09 : Not Found Track 10 : Not Found Track 11 : Not Found Track 12 : Not Found Track 13 : Not Found Track 14 : Not Found Track 15 : Not Found Track 16 : OK (v2, confidence 1/1, with different offset) Track 17 : Not Found Track 18 : Not Found Track 19 : Not Found Track 20 : Not Found Track 21 : Not Found Track 22 : Not Found ->1 track accurately ripped, 21 tracks not found
All Tracks Album gain : -3.96 dB Peak : 1.000000 Statistics Read error : 0 Jitter error (maybe fixed) : 0 Retry sector count : 0 Damaged sector count : 0
Track 01 Filename : /opt/kashin/Bobby Short - Bobby Short Loves Cole Porter/01 - Rap Tap On Wood.flac /opt/kashin/Bobby Short - Bobby Short Loves Cole Porter/01 - Rap Tap On Wood(LAME MP3 (VBR-new quality 0.0)).mp3 /opt/kashin/Bobby Short - Bobby Short Loves Cole Porter/01 - Rap Tap On Wood(LAME MP3 (CBR 320kbps)).mp3 /opt/kashin/Bobby Short - Bobby Short Loves Cole Porter/01 - Rap Tap On Wood(LAME MP3 (VBR-new quality 2.0)).mp3 Pre-gap length : 00:02:00
Track gain : -4.56 dB Peak : 1.000000 CRC32 hash (test run) : F5717CE4 CRC32 hash : F5717CE4 CRC32 hash (skip zero) : 7F7FE764 AccurateRip v1 signature : FC6A5D2E AccurateRip v2 signature : AB8B81BA ->Track not present in AccurateRip database. Statistics Read error : 0 Jitter error (maybe fixed) : 0 Retry sector count : 0 Damaged sector count : 0
Track 02 Filename : /opt/kashin/Bobby Short - Bobby Short Loves Cole Porter/02 - You've Got That Thing.flac /opt/kashin/Bobby Short - Bobby Short Loves Cole Porter/02 - You've Got That Thing(LAME MP3 (VBR-new quality 0.0)).mp3 /opt/kashin/Bobby Short - Bobby Short Loves Cole Porter/02 - You've Got That Thing(LAME MP3 (CBR 320kbps)).mp3 /opt/kashin/Bobby Short - Bobby Short Loves Cole Porter/02 - You've Got That Thing(LAME MP3 (VBR-new quality 2.0)).mp3 Pre-gap length : 00:02:00
Track gain : -5.02 dB Peak : 1.000000 CRC32 hash (test run) : 463039AB CRC32 hash : 463039AB CRC32 hash (skip zero) : 60ECB6D2 AccurateRip v1 signature : 433648E7 AccurateRip v2 signature : 5386D30C ->Track not present in AccurateRip database. Statistics Read error : 0 Jitter error (maybe fixed) : 0 Retry sector count : 0 Damaged sector count : 0
Track 03 Filename : /opt/kashin/Bobby Short - Bobby Short Loves Cole Porter/03 - You Don't Know Paree.flac /opt/kashin/Bobby Short - Bobby Short Loves Cole Porter/03 - You Don't Know Paree(LAME MP3 (VBR-new quality 0.0)).mp3 /opt/kashin/Bobby Short - Bobby Short Loves Cole Porter/03 - You Don't Know Paree(LAME MP3 (CBR 320kbps)).mp3 /opt/kashin/Bobby Short - Bobby Short Loves Cole Porter/03 - You Don't Know Paree(LAME MP3 (VBR-new quality 2.0)).mp3 Pre-gap length : 00:02:00
Track gain : -3.83 dB Peak : 1.000000 CRC32 hash (test run) : CBA6165D CRC32 hash : CBA6165D CRC32 hash (skip zero) : 999ED35C AccurateRip v1 signature : 24E7C95D AccurateRip v2 signature : 9DB6AEBA ->Track not present in AccurateRip database. Statistics Read error : 0 Jitter error (maybe fixed) : 0 Retry sector count : 0 Damaged sector count : 0
Track 04 Filename : /opt/kashin/Bobby Short - Bobby Short Loves Cole Porter/04 - Pilot Me.flac /opt/kashin/Bobby Short - Bobby Short Loves Cole Porter/04 - Pilot Me(LAME MP3 (VBR-new quality 0.0)).mp3 /opt/kashin/Bobby Short - Bobby Short Loves Cole Porter/04 - Pilot Me(LAME MP3 (CBR 320kbps)).mp3 /opt/kashin/Bobby Short - Bobby Short Loves Cole Porter/04 - Pilot Me(LAME MP3 (VBR-new quality 2.0)).mp3 Pre-gap length : 00:02:00
Track gain : -3.95 dB Peak : 1.000000 CRC32 hash (test run) : 00ECEA95 CRC32 hash : 00ECEA95 CRC32 hash (skip zero) : D0EFC7E9 AccurateRip v1 signature : 83504581 AccurateRip v2 signature : 19621671 ->Track not present in AccurateRip database. Statistics Read error : 0 Jitter error (maybe fixed) : 0 Retry sector count : 0 Damaged sector count : 0
Track 05 Filename : /opt/kashin/Bobby Short - Bobby Short Loves Cole Porter/05 - Katie Went To Haiti.flac /opt/kashin/Bobby Short - Bobby Short Loves Cole Porter/05 - Katie Went To Haiti(LAME MP3 (VBR-new quality 0.0)).mp3 /opt/kashin/Bobby Short - Bobby Short Loves Cole Porter/05 - Katie Went To Haiti(LAME MP3 (CBR 320kbps)).mp3 /opt/kashin/Bobby Short - Bobby Short Loves Cole Porter/05 - Katie Went To Haiti(LAME MP3 (VBR-new quality 2.0)).mp3 Pre-gap length : 00:02:00
Track gain : -2.90 dB Peak : 1.000000 CRC32 hash (test run) : 04978D9D CRC32 hash : 04978D9D CRC32 hash (skip zero) : D6732E80 AccurateRip v1 signature : DA0DB790 AccurateRip v2 signature : 9CB17F80 ->Track not present in AccurateRip database. Statistics Read error : 0 Jitter error (maybe fixed) : 0 Retry sector count : 0 Damaged sector count : 0
Track 06 Filename : /opt/kashin/Bobby Short - Bobby Short Loves Cole Porter/06 - How's Your Romance.flac /opt/kashin/Bobby Short - Bobby Short Loves Cole Porter/06 - How's Your Romance(LAME MP3 (VBR-new quality 0.0)).mp3 /opt/kashin/Bobby Short - Bobby Short Loves Cole Porter/06 - How's Your Romance(LAME MP3 (CBR 320kbps)).mp3 /opt/kashin/Bobby Short - Bobby Short Loves Cole Porter/06 - How's Your Romance(LAME MP3 (VBR-new quality 2.0)).mp3 Pre-gap length : 00:02:00
Track gain : -3.76 dB Peak : 1.000000 CRC32 hash (test run) : 344D4D00 CRC32 hash : 344D4D00 CRC32 hash (skip zero) : 7F397C0D AccurateRip v1 signature : 1EF704DA AccurateRip v2 signature : 15EEF51D ->Track not present in AccurateRip database. Statistics Read error : 0 Jitter error (maybe fixed) : 0 Retry sector count : 0 Damaged sector count : 0
Track 07 Filename : /opt/kashin/Bobby Short - Bobby Short Loves Cole Porter/07 - At Long Last Love.flac /opt/kashin/Bobby Short - Bobby Short Loves Cole Porter/07 - At Long Last Love(LAME MP3 (VBR-new quality 0.0)).mp3 /opt/kashin/Bobby Short - Bobby Short Loves Cole Porter/07 - At Long Last Love(LAME MP3 (CBR 320kbps)).mp3 /opt/kashin/Bobby Short - Bobby Short Loves Cole Porter/07 - At Long Last Love(LAME MP3 (VBR-new quality 2.0)).mp3 Pre-gap length : 00:02:00
Track gain : -2.72 dB Peak : 1.000000 CRC32 hash (test run) : 17F18FB3 CRC32 hash : 17F18FB3 CRC32 hash (skip zero) : 32E9C131 AccurateRip v1 signature : C62762EE AccurateRip v2 signature : 2D31E221 ->Track not present in AccurateRip database. Statistics Read error : 0 Jitter error (maybe fixed) : 0 Retry sector count : 0 Damaged sector count : 0
Track 08 Filename : /opt/kashin/Bobby Short - Bobby Short Loves Cole Porter/08 - By Candlelight.flac /opt/kashin/Bobby Short - Bobby Short Loves Cole Porter/08 - By Candlelight(LAME MP3 (VBR-new quality 0.0)).mp3 /opt/kashin/Bobby Short - Bobby Short Loves Cole Porter/08 - By Candlelight(LAME MP3 (CBR 320kbps)).mp3 /opt/kashin/Bobby Short - Bobby Short Loves Cole Porter/08 - By Candlelight(LAME MP3 (VBR-new quality 2.0)).mp3 Pre-gap length : 00:02:00
Track gain : -2.14 dB Peak : 1.000000 CRC32 hash (test run) : 15A27172 CRC32 hash : 15A27172 CRC32 hash (skip zero) : 10363CE2 AccurateRip v1 signature : 4598D7DB AccurateRip v2 signature : 85017E34 ->Track not present in AccurateRip database. Statistics Read error : 0 Jitter error (maybe fixed) : 0 Retry sector count : 0 Damaged sector count : 0
Track 09 Filename : /opt/kashin/Bobby Short - Bobby Short Loves Cole Porter/09 - So Near And Yet So Far.flac /opt/kashin/Bobby Short - Bobby Short Loves Cole Porter/09 - So Near And Yet So Far(LAME MP3 (VBR-new quality 0.0)).mp3 /opt/kashin/Bobby Short - Bobby Short Loves Cole Porter/09 - So Near And Yet So Far(LAME MP3 (CBR 320kbps)).mp3 /opt/kashin/Bobby Short - Bobby Short Loves Cole Porter/09 - So Near And Yet So Far(LAME MP3 (VBR-new quality 2.0)).mp3 Pre-gap length : 00:02:00
Track gain : -3.48 dB Peak : 1.000000 CRC32 hash (test run) : D46D6369 CRC32 hash : D46D6369 CRC32 hash (skip zero) : 9115D3C1 AccurateRip v1 signature : 93DC2BA5 AccurateRip v2 signature : 97E18616 ->Track not present in AccurateRip database. Statistics Read error : 0 Jitter error (maybe fixed) : 0 Retry sector count : 0 Damaged sector count : 0
Track 10 Filename : /opt/kashin/Bobby Short - Bobby Short Loves Cole Porter/10 - How Could We Be Wrong.flac /opt/kashin/Bobby Short - Bobby Short Loves Cole Porter/10 - How Could We Be Wrong(LAME MP3 (VBR-new quality 0.0)).mp3 /opt/kashin/Bobby Short - Bobby Short Loves Cole Porter/10 - How Could We Be Wrong(LAME MP3 (CBR 320kbps)).mp3 /opt/kashin/Bobby Short - Bobby Short Loves Cole Porter/10 - How Could We Be Wrong(LAME MP3 (VBR-new quality 2.0)).mp3 Pre-gap length : 00:02:00
Track gain : -2.18 dB Peak : 0.999969 CRC32 hash (test run) : EA57ADC3 CRC32 hash : EA57ADC3 CRC32 hash (skip zero) : 0DFB86E3 AccurateRip v1 signature : CB268F69 AccurateRip v2 signature : C3987A57 ->Track not present in AccurateRip database. Statistics Read error : 0 Jitter error (maybe fixed) : 0 Retry sector count : 0 Damaged sector count : 0
Track 11 Filename : /opt/kashin/Bobby Short - Bobby Short Loves Cole Porter/11 - Hot-House Rose.flac /opt/kashin/Bobby Short - Bobby Short Loves Cole Porter/11 - Hot-House Rose(LAME MP3 (VBR-new quality 0.0)).mp3 /opt/kashin/Bobby Short - Bobby Short Loves Cole Porter/11 - Hot-House Rose(LAME MP3 (CBR 320kbps)).mp3 /opt/kashin/Bobby Short - Bobby Short Loves Cole Porter/11 - Hot-House Rose(LAME MP3 (VBR-new quality 2.0)).mp3 Pre-gap length : 00:02:00
Track gain : -2.92 dB Peak : 1.000000 CRC32 hash (test run) : 90027C1D CRC32 hash : 90027C1D CRC32 hash (skip zero) : 5507D8C1 AccurateRip v1 signature : E1849E18 AccurateRip v2 signature : 4E992940 ->Track not present in AccurateRip database. Statistics Read error : 0 Jitter error (maybe fixed) : 0 Retry sector count : 0 Damaged sector count : 0
Track 12 Filename : /opt/kashin/Bobby Short - Bobby Short Loves Cole Porter/12 - Let's Fly Away.flac /opt/kashin/Bobby Short - Bobby Short Loves Cole Porter/12 - Let's Fly Away(LAME MP3 (VBR-new quality 0.0)).mp3 /opt/kashin/Bobby Short - Bobby Short Loves Cole Porter/12 - Let's Fly Away(LAME MP3 (CBR 320kbps)).mp3 /opt/kashin/Bobby Short - Bobby Short Loves Cole Porter/12 - Let's Fly Away(LAME MP3 (VBR-new quality 2.0)).mp3 Pre-gap length : 00:02:00
Track gain : -3.73 dB Peak : 1.000000 CRC32 hash (test run) : C572900C CRC32 hash : C572900C CRC32 hash (skip zero) : C6030765 AccurateRip v1 signature : 2434086B AccurateRip v2 signature : 835887E2 ->Track not present in AccurateRip database. Statistics Read error : 0 Jitter error (maybe fixed) : 0 Retry sector count : 0 Damaged sector count : 0
Track 13 Filename : /opt/kashin/Bobby Short - Bobby Short Loves Cole Porter/13 - Why Shouldn't I.flac /opt/kashin/Bobby Short - Bobby Short Loves Cole Porter/13 - Why Shouldn't I(LAME MP3 (VBR-new quality 0.0)).mp3 /opt/kashin/Bobby Short - Bobby Short Loves Cole Porter/13 - Why Shouldn't I(LAME MP3 (CBR 320kbps)).mp3 /opt/kashin/Bobby Short - Bobby Short Loves Cole Porter/13 - Why Shouldn't I(LAME MP3 (VBR-new quality 2.0)).mp3 Pre-gap length : 00:02:00
Track gain : -2.40 dB Peak : 1.000000 CRC32 hash (test run) : 8FB39663 CRC32 hash : 8FB39663 CRC32 hash (skip zero) : E6609F28 AccurateRip v1 signature : 1C4D9AE5 AccurateRip v2 signature : B26B1B93 ->Track not present in AccurateRip database. Statistics Read error : 0 Jitter error (maybe fixed) : 0 Retry sector count : 0 Damaged sector count : 0
Track 14 Filename : /opt/kashin/Bobby Short - Bobby Short Loves Cole Porter/14 - Once Upon A Time.flac /opt/kashin/Bobby Short - Bobby Short Loves Cole Porter/14 - Once Upon A Time(LAME MP3 (VBR-new quality 0.0)).mp3 /opt/kashin/Bobby Short - Bobby Short Loves Cole Porter/14 - Once Upon A Time(LAME MP3 (CBR 320kbps)).mp3 /opt/kashin/Bobby Short - Bobby Short Loves Cole Porter/14 - Once Upon A Time(LAME MP3 (VBR-new quality 2.0)).mp3 Pre-gap length : 00:02:00
Track gain : -3.32 dB Peak : 1.000000 CRC32 hash (test run) : 6403E452 CRC32 hash : 6403E452 CRC32 hash (skip zero) : FEF16FA3 AccurateRip v1 signature : 3F386CA4 AccurateRip v2 signature : D0EED917 ->Track not present in AccurateRip database. Statistics Read error : 0 Jitter error (maybe fixed) : 0 Retry sector count : 0 Damaged sector count : 0
Track 15 Filename : /opt/kashin/Bobby Short - Bobby Short Loves Cole Porter/15 - Weren't We Fools.flac /opt/kashin/Bobby Short - Bobby Short Loves Cole Porter/15 - Weren't We Fools(LAME MP3 (VBR-new quality 0.0)).mp3 /opt/kashin/Bobby Short - Bobby Short Loves Cole Porter/15 - Weren't We Fools(LAME MP3 (CBR 320kbps)).mp3 /opt/kashin/Bobby Short - Bobby Short Loves Cole Porter/15 - Weren't We Fools(LAME MP3 (VBR-new quality 2.0)).mp3 Pre-gap length : 00:02:00
Track gain : -4.71 dB Peak : 1.000000 CRC32 hash (test run) : BA3DC336 CRC32 hash : BA3DC336 CRC32 hash (skip zero) : 89589D89 AccurateRip v1 signature : D0B08456 AccurateRip v2 signature : 5642D85E ->Track not present in AccurateRip database. Statistics Read error : 0 Jitter error (maybe fixed) : 0 Retry sector count : 0 Damaged sector count : 0
Track 16 Filename : /opt/kashin/Bobby Short - Bobby Short Loves Cole Porter/16 - Do I Love You.flac /opt/kashin/Bobby Short - Bobby Short Loves Cole Porter/16 - Do I Love You(LAME MP3 (VBR-new quality 0.0)).mp3 /opt/kashin/Bobby Short - Bobby Short Loves Cole Porter/16 - Do I Love You(LAME MP3 (CBR 320kbps)).mp3 /opt/kashin/Bobby Short - Bobby Short Loves Cole Porter/16 - Do I Love You(LAME MP3 (VBR-new quality 2.0)).mp3 Pre-gap length : 00:02:00
Track gain : -5.30 dB Peak : 0.999969 CRC32 hash (test run) : A918BF31 CRC32 hash : A918BF31 CRC32 hash (skip zero) : 7D8C1F24 AccurateRip v1 signature : F47CF861 AccurateRip v2 signature : 438C196D (C5205B5E w/correction) ->Accurately ripped with different offset (v2, confidence 1/1, offset -526) Statistics Read error : 0 Jitter error (maybe fixed) : 0 Retry sector count : 0 Damaged sector count : 0
Track 17 Filename : /opt/kashin/Bobby Short - Bobby Short Loves Cole Porter/17 - I've Got You On My Mind.flac /opt/kashin/Bobby Short - Bobby Short Loves Cole Porter/17 - I've Got You On My Mind(LAME MP3 (VBR-new quality 0.0)).mp3 /opt/kashin/Bobby Short - Bobby Short Loves Cole Porter/17 - I've Got You On My Mind(LAME MP3 (CBR 320kbps)).mp3 /opt/kashin/Bobby Short - Bobby Short Loves Cole Porter/17 - I've Got You On My Mind(LAME MP3 (VBR-new quality 2.0)).mp3 Pre-gap length : 00:02:00
Track gain : -5.13 dB Peak : 1.000000 CRC32 hash (test run) : 247B2D33 CRC32 hash : 247B2D33 CRC32 hash (skip zero) : EF0F9DD3 AccurateRip v1 signature : 5BB2515E AccurateRip v2 signature : A05EAAB5 ->Track not present in AccurateRip database. Statistics Read error : 0 Jitter error (maybe fixed) : 0 Retry sector count : 0 Damaged sector count : 0
Track 18 Filename : /opt/kashin/Bobby Short - Bobby Short Loves Cole Porter/18 - Where Have You Been.flac /opt/kashin/Bobby Short - Bobby Short Loves Cole Porter/18 - Where Have You Been(LAME MP3 (VBR-new quality 0.0)).mp3 /opt/kashin/Bobby Short - Bobby Short Loves Cole Porter/18 - Where Have You Been(LAME MP3 (CBR 320kbps)).mp3 /opt/kashin/Bobby Short - Bobby Short Loves Cole Porter/18 - Where Have You Been(LAME MP3 (VBR-new quality 2.0)).mp3 Pre-gap length : 00:02:00
Track gain : -4.09 dB Peak : 1.000000 CRC32 hash (test run) : 754787DF CRC32 hash : 754787DF CRC32 hash (skip zero) : 63DD5BDA AccurateRip v1 signature : 27473980 AccurateRip v2 signature : AFE5B464 ->Track not present in AccurateRip database. Statistics Read error : 0 Jitter error (maybe fixed) : 0 Retry sector count : 0 Damaged sector count : 0
Track 19 Filename : /opt/kashin/Bobby Short - Bobby Short Loves Cole Porter/19 - I Hate You, Darling.flac /opt/kashin/Bobby Short - Bobby Short Loves Cole Porter/19 - I Hate You, Darling(LAME MP3 (VBR-new quality 0.0)).mp3 /opt/kashin/Bobby Short - Bobby Short Loves Cole Porter/19 - I Hate You, Darling(LAME MP3 (CBR 320kbps)).mp3 /opt/kashin/Bobby Short - Bobby Short Loves Cole Porter/19 - I Hate You, Darling(LAME MP3 (VBR-new quality 2.0)).mp3 Pre-gap length : 00:02:00
Track gain : -3.61 dB Peak : 1.000000 CRC32 hash (test run) : C761E2A0 CRC32 hash : C761E2A0 CRC32 hash (skip zero) : AE3FBE9F AccurateRip v1 signature : 620DF7E2 AccurateRip v2 signature : 11386914 ->Track not present in AccurateRip database. Statistics Read error : 0 Jitter error (maybe fixed) : 0 Retry sector count : 0 Damaged sector count : 0
Track 20 Filename : /opt/kashin/Bobby Short - Bobby Short Loves Cole Porter/20 - I'm In Love Again.flac /opt/kashin/Bobby Short - Bobby Short Loves Cole Porter/20 - I'm In Love Again(LAME MP3 (VBR-new quality 0.0)).mp3 /opt/kashin/Bobby Short - Bobby Short Loves Cole Porter/20 - I'm In Love Again(LAME MP3 (CBR 320kbps)).mp3 /opt/kashin/Bobby Short - Bobby Short Loves Cole Porter/20 - I'm In Love Again(LAME MP3 (VBR-new quality 2.0)).mp3 Pre-gap length : 00:02:00
Track gain : -4.86 dB Peak : 1.000000 CRC32 hash (test run) : 02B41BC9 CRC32 hash : 02B41BC9 CRC32 hash (skip zero) : 03BEC5C7 AccurateRip v1 signature : 9910A5BE AccurateRip v2 signature : 660EDFD5 ->Track not present in AccurateRip database. Statistics Read error : 0 Jitter error (maybe fixed) : 0 Retry sector count : 0 Damaged sector count : 0
Track 21 Filename : /opt/kashin/Bobby Short - Bobby Short Loves Cole Porter/21 - Just One Of Those Things.flac /opt/kashin/Bobby Short - Bobby Short Loves Cole Porter/21 - Just One Of Those Things(LAME MP3 (VBR-new quality 0.0)).mp3 /opt/kashin/Bobby Short - Bobby Short Loves Cole Porter/21 - Just One Of Those Things(LAME MP3 (CBR 320kbps)).mp3 /opt/kashin/Bobby Short - Bobby Short Loves Cole Porter/21 - Just One Of Those Things(LAME MP3 (VBR-new quality 2.0)).mp3 Pre-gap length : 00:02:00
Track gain : -4.26 dB Peak : 1.000000 CRC32 hash (test run) : 403B7A31 CRC32 hash : 403B7A31 CRC32 hash (skip zero) : 04562855 AccurateRip v1 signature : 388094C7 AccurateRip v2 signature : 66C87F6E ->Track not present in AccurateRip database. Statistics Read error : 0 Jitter error (maybe fixed) : 0 Retry sector count : 0 Damaged sector count : 0
Track 22 Filename : /opt/kashin/Bobby Short - Bobby Short Loves Cole Porter/22 - Why Don't We Try Staying Home.flac /opt/kashin/Bobby Short - Bobby Short Loves Cole Porter/22 - Why Don't We Try Staying Home(LAME MP3 (VBR-new quality 0.0)).mp3 /opt/kashin/Bobby Short - Bobby Short Loves Cole Porter/22 - Why Don't We Try Staying Home(LAME MP3 (CBR 320kbps)).mp3 /opt/kashin/Bobby Short - Bobby Short Loves Cole Porter/22 - Why Don't We Try Staying Home(LAME MP3 (VBR-new quality 2.0)).mp3 Pre-gap length : 00:02:00
Track gain : -2.75 dB Peak : 0.999969 CRC32 hash (test run) : 959F2A54 CRC32 hash : 959F2A54 CRC32 hash (skip zero) : C1481FAB AccurateRip v1 signature : 7F304099 AccurateRip v2 signature : 322FDE6F ->Track not present in AccurateRip database. Statistics Read error : 0 Jitter error (maybe fixed) : 0 Retry sector count : 0 Damaged sector count : 0
No errors occurred
End of status report
-----BEGIN XLD SIGNATURE-----GrFXxXjyP8mEOkd5reTSlocBUNswEPqo87VVR56HRqYdMnQlh.CkF2DQBTqLYvUDXuzmyRQP02_oaKEQfQWDa8Qtb3s3Og8lK404MAa-----END XLD SIGNATURE-----

Содержание индексной карты (.CUE)

TITLE "Bobby Short Loves Cole Porter"PERFORMER "Bobby Short"REM GENRE "Jazz"REM DATE "1971"REM DISCID 5B107716REM REPLAYGAIN_ALBUM_GAIN -3.96 dBREM REPLAYGAIN_ALBUM_PEAK 1.000000FILE "01 - Rap Tap on Wood.flac" WAVE TRACK 01 AUDIO TITLE "Rap Tap on Wood" ISRC USAT20181396 REM REPLAYGAIN_TRACK_GAIN -4.56 dB REM REPLAYGAIN_TRACK_PEAK 1.000000 INDEX 01 00:00:00 TRACK 02 AUDIO TITLE "You've Got That Thing" ISRC USAT20105236 REM REPLAYGAIN_TRACK_GAIN -5.02 dB REM REPLAYGAIN_TRACK_PEAK 1.000000 INDEX 00 02:38:13FILE "02 - You've Got That Thing.flac" WAVE INDEX 01 00:00:00 TRACK 03 AUDIO TITLE "You Don't Know Paree" ISRC USAT20105237 REM REPLAYGAIN_TRACK_GAIN -3.83 dB REM REPLAYGAIN_TRACK_PEAK 1.000000 INDEX 00 03:24:10FILE "03 - You Don't Know Paree.flac" WAVE INDEX 01 00:00:00 TRACK 04 AUDIO TITLE "Pilot Me" ISRC USAT20105238 REM REPLAYGAIN_TRACK_GAIN -3.95 dB REM REPLAYGAIN_TRACK_PEAK 1.000000 INDEX 00 03:09:01FILE "04 - Pilot Me.flac" WAVE INDEX 01 00:00:00 TRACK 05 AUDIO TITLE "Katie Went to Haiti" ISRC USAT20105239 REM REPLAYGAIN_TRACK_GAIN -2.90 dB REM REPLAYGAIN_TRACK_PEAK 1.000000 INDEX 00 02:45:26FILE "05 - Katie Went to Haiti.flac" WAVE INDEX 01 00:00:00 TRACK 06 AUDIO TITLE "How's Your Romance" ISRC USAT20105240 REM REPLAYGAIN_TRACK_GAIN -3.76 dB REM REPLAYGAIN_TRACK_PEAK 1.000000 INDEX 00 04:41:24FILE "06 - How's Your Romance.flac" WAVE INDEX 01 00:00:00 TRACK 07 AUDIO TITLE "At Long Last Love" ISRC USAT20105241 REM REPLAYGAIN_TRACK_GAIN -2.72 dB REM REPLAYGAIN_TRACK_PEAK 1.000000 INDEX 00 02:22:21FILE "07 - At Long Last Love.flac" WAVE INDEX 01 00:00:00 TRACK 08 AUDIO TITLE "By Candlelight" ISRC USAT20105242 REM REPLAYGAIN_TRACK_GAIN -2.14 dB REM REPLAYGAIN_TRACK_PEAK 1.000000 INDEX 00 04:18:72FILE "08 - By Candlelight.flac" WAVE INDEX 01 00:00:00 TRACK 09 AUDIO TITLE "So Near and Yet So Far" ISRC USAT20181397 REM REPLAYGAIN_TRACK_GAIN -3.48 dB REM REPLAYGAIN_TRACK_PEAK 1.000000 INDEX 00 02:25:00FILE "09 - So Near and Yet So Far.flac" WAVE INDEX 01 00:00:00 TRACK 10 AUDIO TITLE "How Could We Be Wrong" ISRC USAT20105243 REM REPLAYGAIN_TRACK_GAIN -2.18 dB REM REPLAYGAIN_TRACK_PEAK 0.999969 INDEX 00 02:51:60FILE "10 - How Could We Be Wrong.flac" WAVE INDEX 01 00:00:00 TRACK 11 AUDIO TITLE "Hot-House Rose" ISRC USAT20105244 REM REPLAYGAIN_TRACK_GAIN -2.92 dB REM REPLAYGAIN_TRACK_PEAK 1.000000 INDEX 00 03:17:05FILE "11 - Hot-House Rose.flac" WAVE INDEX 01 00:00:00 TRACK 12 AUDIO TITLE "Let's Fly Away" ISRC USAT20105234 REM REPLAYGAIN_TRACK_GAIN -3.73 dB REM REPLAYGAIN_TRACK_PEAK 1.000000 INDEX 00 02:30:54FILE "12 - Let's Fly Away.flac" WAVE INDEX 01 00:00:00 TRACK 13 AUDIO TITLE "Why Shouldn't I" ISRC USAT20105245 REM REPLAYGAIN_TRACK_GAIN -2.40 dB REM REPLAYGAIN_TRACK_PEAK 1.000000 INDEX 00 02:46:38FILE "13 - Why Shouldn't I.flac" WAVE INDEX 01 00:00:00 TRACK 14 AUDIO TITLE "Once Upon a Time" ISRC USAT20105248 REM REPLAYGAIN_TRACK_GAIN -3.32 dB REM REPLAYGAIN_TRACK_PEAK 1.000000 INDEX 00 04:45:66FILE "14 - Once Upon a Time.flac" WAVE INDEX 01 00:00:00 TRACK 15 AUDIO TITLE "Weren't We Fools" ISRC USAT20105249 REM REPLAYGAIN_TRACK_GAIN -4.71 dB REM REPLAYGAIN_TRACK_PEAK 1.000000 INDEX 00 02:09:33FILE "15 - Weren't We Fools.flac" WAVE INDEX 01 00:00:00 TRACK 16 AUDIO TITLE "Do I Love You" ISRC USAT20105250 REM REPLAYGAIN_TRACK_GAIN -5.30 dB REM REPLAYGAIN_TRACK_PEAK 0.999969 INDEX 00 04:10:42FILE "16 - Do I Love You.flac" WAVE INDEX 01 00:00:00 TRACK 17 AUDIO TITLE "I've Got You on My Mind" ISRC USAT20105251 REM REPLAYGAIN_TRACK_GAIN -5.13 dB REM REPLAYGAIN_TRACK_PEAK 1.000000 INDEX 00 02:24:55FILE "17 - I've Got You on My Mind.flac" WAVE INDEX 01 00:00:00 TRACK 18 AUDIO TITLE "Where Have You Been" ISRC USAT20105252 REM REPLAYGAIN_TRACK_GAIN -4.09 dB REM REPLAYGAIN_TRACK_PEAK 1.000000 INDEX 00 03:08:03FILE "18 - Where Have You Been.flac" WAVE INDEX 01 00:00:00 TRACK 19 AUDIO TITLE "I Hate You, Darling" ISRC USAT20105253 REM REPLAYGAIN_TRACK_GAIN -3.61 dB REM REPLAYGAIN_TRACK_PEAK 1.000000 INDEX 00 03:48:74FILE "19 - I Hate You, Darling.flac" WAVE INDEX 01 00:00:00 TRACK 20 AUDIO TITLE "I'm in Love Again" ISRC USAT20105254 REM REPLAYGAIN_TRACK_GAIN -4.86 dB REM REPLAYGAIN_TRACK_PEAK 1.000000 INDEX 00 03:08:34FILE "20 - I'm in Love Again.flac" WAVE INDEX 01 00:00:00 TRACK 21 AUDIO TITLE "Just One of Those Things" ISRC USAT20105255 REM REPLAYGAIN_TRACK_GAIN -4.26 dB REM REPLAYGAIN_TRACK_PEAK 1.000000 INDEX 00 02:26:20FILE "21 - Just One of Those Things.flac" WAVE INDEX 01 00:00:00 TRACK 22 AUDIO TITLE "Why Don't We Try Staying Home" ISRC USAT20105256 REM REPLAYGAIN_TRACK_GAIN -2.75 dB REM REPLAYGAIN_TRACK_PEAK 0.999969 INDEX 00 02:27:49FILE "22 - Why Don't We Try Staying Home.flac" WAVE INDEX 01 00:00:00

Отчет CUETools

[CUETools log; Date: 14.06.2017 20:47:12; Version: 2.1.5][CTDB TOCID: LHeTZ96Df4AUfNBU.AC7Ibjx_XM-] found.Track | CTDB Status 1 | (4/4) Accurately ripped 2 | (4/4) Accurately ripped 3 | (4/4) Accurately ripped 4 | (4/4) Accurately ripped 5 | (4/4) Accurately ripped 6 | (4/4) Accurately ripped 7 | (4/4) Accurately ripped 8 | (4/4) Accurately ripped 9 | (4/4) Accurately ripped 10 | (4/4) Accurately ripped 11 | (4/4) Accurately ripped 12 | (4/4) Accurately ripped 13 | (4/4) Accurately ripped 14 | (4/4) Accurately ripped 15 | (4/4) Accurately ripped 16 | (4/4) Accurately ripped 17 | (4/4) Accurately ripped 18 | (4/4) Accurately ripped 19 | (4/4) Accurately ripped 20 | (4/4) Accurately ripped 21 | (4/4) Accurately ripped 22 | (4/4) Accurately ripped[AccurateRip ID: 0037a8e3-037aae0e-5b107716] found.Track [ CRC | V2 ] Status 01 [fc6a5d2e|ab8b81ba] (0+0/0) No match 02 [433648e7|5386d30c] (0+0/0) No match 03 [24e7c95d|9db6aeba] (0+0/0) No match 04 [83504581|19621671] (0+0/0) No match 05 [da0db790|9cb17f80] (0+0/0) No match 06 [1ef704da|15eef51d] (0+0/0) No match 07 [c62762ee|2d31e221] (0+0/0) No match 08 [4598d7db|85017e34] (0+0/0) No match 09 [93dc2ba5|97e18616] (0+0/0) No match 10 [cb268f69|c3987a57] (0+0/0) No match 11 [e1849e18|4e992940] (0+0/0) No match 12 [2434086b|835887e2] (0+0/0) No match 13 [1c4d9ae5|b26b1b93] (0+0/0) No match 14 [3f386ca4|d0eed917] (0+0/0) No match 15 [d0b08456|5642d85e] (0+0/0) No match 16 [f47cf861|438c196d] (0+0/1) No match 17 [5bb2515e|a05eaab5] (0+0/0) No match 18 [27473980|afe5b464] (0+0/0) No match 19 [620df7e2|11386914] (0+0/0) No match 20 [9910a5be|660edfd5] (0+0/0) No match 21 [388094c7|66c87f6e] (0+0/0) No match 22 [7f304099|322fde6f] (0+0/0) No matchOffsetted by -526: 01 [6cdad1e4] (0/0) No match 02 [a8c01cad] (0/0) No match 03 [c34eaaf9] (0/0) No match 04 [93f82175] (0/0) No match 05 [1f26e17e] (0/0) No match 06 [99eff780] (0/0) No match 07 [2627d13c] (0/0) No match 08 [2a27bbf1] (0/0) No match 09 [277b6117] (0/0) No match 10 [ff13a289] (0/0) No match 11 [48043938] (0/0) No match 12 [14219d4f] (0/0) No match 13 [effbb939] (0/0) No match 14 [5ef9be36] (0/0) No match 15 [cdfe39ce] (0/0) No match 16 [100388dd] (0/1) No match (V2 was not tested) 17 [59295cae] (0/0) No match 18 [c3153d2a] (0/0) No match 19 [590204ec] (0/0) No match 20 [683d7d8a] (0/0) No match 21 [d098366f] (0/0) No match 22 [fc0ab6c8] (0/0) No match
Track Peak [ CRC32 ] [W/O NULL] -- 100,0 [5C4E7045] [1FC5A741] 01 100,0 [F5717CE4] [7F7FE764] 02 100,0 [463039AB] [60ECB6D2] 03 100,0 [CBA6165D] [999ED35C] 04 100,0 [00ECEA95] [D0EFC7E9] 05 100,0 [04978D9D] [D6732E80] 06 100,0 [344D4D00] [7F397C0D] 07 100,0 [17F18FB3] [32E9C131] 08 100,0 [15A27172] [10363CE2] 09 100,0 [D46D6369] [9115D3C1] 10 100,0 [EA57ADC3] [0DFB86E3] 11 100,0 [90027C1D] [5507D8C1] 12 100,0 [C572900C] [C6030765] 13 100,0 [8FB39663] [E6609F28] 14 100,0 [6403E452] [FEF16FA3] 15 100,0 [BA3DC336] [89589D89] 16 100,0 [A918BF31] [7D8C1F24] 17 100,0 [247B2D33] [EF0F9DD3] 18 100,0 [754787DF] [63DD5BDA] 19 100,0 [C761E2A0] [AE3FBE9F] 20 100,0 [02B41BC9] [03BEC5C7] 21 100,0 [403B7A31] [04562855] 22 100,0 [959F2A54] [C1481FAB]

CD2 - Guess Who's in Town: The Songs of Andy Razaf (1987) {38:57}

01. Guess Who's in Town (3:40)
02. Honeysuckle Rose (3:22)
03. How Can You Face Me? (4:30)
04. A Porter's Love Song (To a Chamber Maid) (3:39)
05. Sposin' (3:17)
06. Ain't Misbehavin' (4:24)
07. Tan Manhattan (2:11)
08. Black and Blue (3:54)
09. Make Believe Ballroom (2:51)
10. I'm Gonna Move to the Outskirts of Town (4:20)
11. Lonesome Swallow (2:49)

Лог создания рипа

X Lossless Decoder version 20141129 (148.1)
XLD extraction logfile from 2016-04-09 17:57:23 -0400
Bobby Short / Guess Who's In Town: Bobby Short Performs The Songs Of Andy Razaf
Used drive : MATSHITA DVD-R UJ-8A8 (revision HB14)Media type : Pressed CD
Ripper mode : XLD Secure RipperDisable audio cache : OK for the drive with a cache less than 1375KiBMake use of C2 pointers : NORead offset correction : 102Max retry count : 20Gap status : Analyzed, Appended (except HTOA)
TOC of the extracted CD Track | Start | Length | Start sector | End sector --------------------------------------------------------- 1 | 00:00:00 | 03:39:48 | 0 | 16472 2 | 03:39:48 | 03:21:68 | 16473 | 31615 3 | 07:01:41 | 04:30:12 | 31616 | 51877 4 | 11:31:53 | 03:39:19 | 51878 | 68321 5 | 15:10:72 | 03:17:33 | 68322 | 83129 6 | 18:28:30 | 04:23:43 | 83130 | 102897 7 | 22:51:73 | 02:11:09 | 102898 | 112731 8 | 25:03:07 | 03:54:14 | 112732 | 130295 9 | 28:57:21 | 02:51:37 | 130296 | 143157 10 | 31:48:58 | 04:19:52 | 143158 | 162634 11 | 36:08:35 | 02:48:44 | 162635 | 175278
AccurateRip Summary (DiscID: 00107491-008dd250-7309210b) Track 01 : OK (v2, confidence 1/1) Track 02 : OK (v2, confidence 1/1) Track 03 : OK (v2, confidence 1/1) Track 04 : OK (v2, confidence 1/1) Track 05 : OK (v2, confidence 1/1) Track 06 : OK (v2, confidence 1/1) Track 07 : OK (v2, confidence 1/1) Track 08 : OK (v2, confidence 1/1) Track 09 : OK (v2, confidence 1/1) Track 10 : OK (v2, confidence 1/1) Track 11 : OK (v2, confidence 1/1) ->All tracks accurately ripped.
All Tracks Album gain : -4.25 dB Peak : 1.000000 Statistics Read error : 0 Jitter error (maybe fixed) : 0 Retry sector count : 0 Damaged sector count : 0
Track 01 Filename : /opt/kashin/Bobby Short Performs the Songs of Andy Razaf/01 - Guess Who's In Town.flac /opt/kashin/Bobby Short Performs the Songs of Andy Razaf/01 - Guess Who's In Town(LAME MP3 (VBR-new quality 0.0)).mp3 /opt/kashin/Bobby Short Performs the Songs of Andy Razaf/01 - Guess Who's In Town(LAME MP3 (CBR 320kbps)).mp3 /opt/kashin/Bobby Short Performs the Songs of Andy Razaf/01 - Guess Who's In Town(LAME MP3 (VBR-new quality 2.0)).mp3 Pre-gap length : 00:02:00
Track gain : -5.65 dB Peak : 1.000000 CRC32 hash (test run) : 1D862941 CRC32 hash : 1D862941 CRC32 hash (skip zero) : B66F58BA AccurateRip v1 signature : BFA40435 AccurateRip v2 signature : 7DAE8C4B ->Accurately ripped (v2, confidence 1/1) Statistics Read error : 0 Jitter error (maybe fixed) : 0 Retry sector count : 0 Damaged sector count : 0
Track 02 Filename : /opt/kashin/Bobby Short Performs the Songs of Andy Razaf/02 - Honeysuckle Rose.flac /opt/kashin/Bobby Short Performs the Songs of Andy Razaf/02 - Honeysuckle Rose(LAME MP3 (VBR-new quality 0.0)).mp3 /opt/kashin/Bobby Short Performs the Songs of Andy Razaf/02 - Honeysuckle Rose(LAME MP3 (CBR 320kbps)).mp3 /opt/kashin/Bobby Short Performs the Songs of Andy Razaf/02 - Honeysuckle Rose(LAME MP3 (VBR-new quality 2.0)).mp3 Pre-gap length : 00:02:00
Track gain : -4.49 dB Peak : 1.000000 CRC32 hash (test run) : 4B629F2E CRC32 hash : 4B629F2E CRC32 hash (skip zero) : 008FDD2E AccurateRip v1 signature : 501A7B82 AccurateRip v2 signature : 7525AF5F ->Accurately ripped (v2, confidence 1/1) Statistics Read error : 0 Jitter error (maybe fixed) : 0 Retry sector count : 0 Damaged sector count : 0
Track 03 Filename : /opt/kashin/Bobby Short Performs the Songs of Andy Razaf/03 - How Can You Face Me.flac /opt/kashin/Bobby Short Performs the Songs of Andy Razaf/03 - How Can You Face Me(LAME MP3 (VBR-new quality 0.0)).mp3 /opt/kashin/Bobby Short Performs the Songs of Andy Razaf/03 - How Can You Face Me(LAME MP3 (CBR 320kbps)).mp3 /opt/kashin/Bobby Short Performs the Songs of Andy Razaf/03 - How Can You Face Me(LAME MP3 (VBR-new quality 2.0)).mp3 Pre-gap length : 00:02:00
Track gain : -3.20 dB Peak : 1.000000 CRC32 hash (test run) : 75CE4787 CRC32 hash : 75CE4787 CRC32 hash (skip zero) : 78C899AA AccurateRip v1 signature : 7CD25BA4 AccurateRip v2 signature : 6238ED22 ->Accurately ripped (v2, confidence 1/1) Statistics Read error : 0 Jitter error (maybe fixed) : 0 Retry sector count : 0 Damaged sector count : 0
Track 04 Filename : /opt/kashin/Bobby Short Performs the Songs of Andy Razaf/04 - A Porter's Love Song To A Chambermaid.flac /opt/kashin/Bobby Short Performs the Songs of Andy Razaf/04 - A Porter's Love Song To A Chambermaid(LAME MP3 (VBR-new quality 0.0)).mp3 /opt/kashin/Bobby Short Performs the Songs of Andy Razaf/04 - A Porter's Love Song To A Chambermaid(LAME MP3 (CBR 320kbps)).mp3 /opt/kashin/Bobby Short Performs the Songs of Andy Razaf/04 - A Porter's Love Song To A Chambermaid(LAME MP3 (VBR-new quality 2.0)).mp3 Pre-gap length : 00:02:00
Track gain : -5.36 dB Peak : 1.000000 CRC32 hash (test run) : 2ED69D38 CRC32 hash : 2ED69D38 CRC32 hash (skip zero) : C6F7196D AccurateRip v1 signature : 76C8BFC8 AccurateRip v2 signature : 9B96D99C ->Accurately ripped (v2, confidence 1/1) Statistics Read error : 0 Jitter error (maybe fixed) : 0 Retry sector count : 0 Damaged sector count : 0
Track 05 Filename : /opt/kashin/Bobby Short Performs the Songs of Andy Razaf/05 - S'Posin'.flac /opt/kashin/Bobby Short Performs the Songs of Andy Razaf/05 - S'Posin'(LAME MP3 (VBR-new quality 0.0)).mp3 /opt/kashin/Bobby Short Performs the Songs of Andy Razaf/05 - S'Posin'(LAME MP3 (CBR 320kbps)).mp3 /opt/kashin/Bobby Short Performs the Songs of Andy Razaf/05 - S'Posin'(LAME MP3 (VBR-new quality 2.0)).mp3 Pre-gap length : 00:02:01
Track gain : -3.69 dB Peak : 1.000000 CRC32 hash (test run) : 64883725 CRC32 hash : 64883725 CRC32 hash (skip zero) : 4B6DEDA9 AccurateRip v1 signature : 659B2F2F AccurateRip v2 signature : EE5C7D5B ->Accurately ripped (v2, confidence 1/1) Statistics Read error : 0 Jitter error (maybe fixed) : 0 Retry sector count : 0 Damaged sector count : 0
Track 06 Filename : /opt/kashin/Bobby Short Performs the Songs of Andy Razaf/06 - Ain't Misbehavin'.flac /opt/kashin/Bobby Short Performs the Songs of Andy Razaf/06 - Ain't Misbehavin'(LAME MP3 (VBR-new quality 0.0)).mp3 /opt/kashin/Bobby Short Performs the Songs of Andy Razaf/06 - Ain't Misbehavin'(LAME MP3 (CBR 320kbps)).mp3 /opt/kashin/Bobby Short Performs the Songs of Andy Razaf/06 - Ain't Misbehavin'(LAME MP3 (VBR-new quality 2.0)).mp3 Pre-gap length : 00:02:00
Track gain : -3.88 dB Peak : 0.999969 CRC32 hash (test run) : 684BD928 CRC32 hash : 684BD928 CRC32 hash (skip zero) : E50C28F7 AccurateRip v1 signature : C0119975 AccurateRip v2 signature : 6D8A519B ->Accurately ripped (v2, confidence 1/1) Statistics Read error : 0 Jitter error (maybe fixed) : 0 Retry sector count : 0 Damaged sector count : 0
Track 07 Filename : /opt/kashin/Bobby Short Performs the Songs of Andy Razaf/07 - Tan Manhattan.flac /opt/kashin/Bobby Short Performs the Songs of Andy Razaf/07 - Tan Manhattan(LAME MP3 (VBR-new quality 0.0)).mp3 /opt/kashin/Bobby Short Performs the Songs of Andy Razaf/07 - Tan Manhattan(LAME MP3 (CBR 320kbps)).mp3 /opt/kashin/Bobby Short Performs the Songs of Andy Razaf/07 - Tan Manhattan(LAME MP3 (VBR-new quality 2.0)).mp3 Pre-gap length : 00:02:01
Track gain : -2.06 dB Peak : 1.000000 CRC32 hash (test run) : 19AAD1CB CRC32 hash : 19AAD1CB CRC32 hash (skip zero) : 29B3184E AccurateRip v1 signature : 57B13098 AccurateRip v2 signature : 9BC5B0B0 ->Accurately ripped (v2, confidence 1/1) Statistics Read error : 0 Jitter error (maybe fixed) : 0 Retry sector count : 0 Damaged sector count : 0
Track 08 Filename : /opt/kashin/Bobby Short Performs the Songs of Andy Razaf/08 - Black And Blue.flac /opt/kashin/Bobby Short Performs the Songs of Andy Razaf/08 - Black And Blue(LAME MP3 (VBR-new quality 0.0)).mp3 /opt/kashin/Bobby Short Performs the Songs of Andy Razaf/08 - Black And Blue(LAME MP3 (CBR 320kbps)).mp3 /opt/kashin/Bobby Short Performs the Songs of Andy Razaf/08 - Black And Blue(LAME MP3 (VBR-new quality 2.0)).mp3 Pre-gap length : 00:02:01
Track gain : -4.34 dB Peak : 1.000000 CRC32 hash (test run) : 804BA6C9 CRC32 hash : 804BA6C9 CRC32 hash (skip zero) : A32E67AC AccurateRip v1 signature : 5C0BDA73 AccurateRip v2 signature : 1728F620 ->Accurately ripped (v2, confidence 1/1) Statistics Read error : 0 Jitter error (maybe fixed) : 0 Retry sector count : 0 Damaged sector count : 0
Track 09 Filename : /opt/kashin/Bobby Short Performs the Songs of Andy Razaf/09 - Make Believe Ballroom.flac /opt/kashin/Bobby Short Performs the Songs of Andy Razaf/09 - Make Believe Ballroom(LAME MP3 (VBR-new quality 0.0)).mp3 /opt/kashin/Bobby Short Performs the Songs of Andy Razaf/09 - Make Believe Ballroom(LAME MP3 (CBR 320kbps)).mp3 /opt/kashin/Bobby Short Performs the Songs of Andy Razaf/09 - Make Believe Ballroom(LAME MP3 (VBR-new quality 2.0)).mp3 Pre-gap length : 00:02:01
Track gain : -3.54 dB Peak : 1.000000 CRC32 hash (test run) : 1F6C4FC4 CRC32 hash : 1F6C4FC4 CRC32 hash (skip zero) : E360A5F9 AccurateRip v1 signature : 7CB0F40D AccurateRip v2 signature : DF70CFB0 ->Accurately ripped (v2, confidence 1/1) Statistics Read error : 0 Jitter error (maybe fixed) : 0 Retry sector count : 0 Damaged sector count : 0
Track 10 Filename : /opt/kashin/Bobby Short Performs the Songs of Andy Razaf/10 - I'm Gonna Move To The Outskirts Of Town.flac /opt/kashin/Bobby Short Performs the Songs of Andy Razaf/10 - I'm Gonna Move To The Outskirts Of Town(LAME MP3 (VBR-new quality 0.0)).mp3 /opt/kashin/Bobby Short Performs the Songs of Andy Razaf/10 - I'm Gonna Move To The Outskirts Of Town(LAME MP3 (CBR 320kbps)).mp3 /opt/kashin/Bobby Short Performs the Songs of Andy Razaf/10 - I'm Gonna Move To The Outskirts Of Town(LAME MP3 (VBR-new quality 2.0)).mp3 Pre-gap length : 00:02:00
Track gain : -4.79 dB Peak : 1.000000 CRC32 hash (test run) : F8D272F3 CRC32 hash : F8D272F3 CRC32 hash (skip zero) : 806BBE25 AccurateRip v1 signature : 34CF6268 AccurateRip v2 signature : 44E46C0E ->Accurately ripped (v2, confidence 1/1) Statistics Read error : 0 Jitter error (maybe fixed) : 0 Retry sector count : 0 Damaged sector count : 0
Track 11 Filename : /opt/kashin/Bobby Short Performs the Songs of Andy Razaf/11 - Lonesome Swallow.flac /opt/kashin/Bobby Short Performs the Songs of Andy Razaf/11 - Lonesome Swallow(LAME MP3 (VBR-new quality 0.0)).mp3 /opt/kashin/Bobby Short Performs the Songs of Andy Razaf/11 - Lonesome Swallow(LAME MP3 (CBR 320kbps)).mp3 /opt/kashin/Bobby Short Performs the Songs of Andy Razaf/11 - Lonesome Swallow(LAME MP3 (VBR-new quality 2.0)).mp3 Pre-gap length : 00:02:01
Track gain : -3.98 dB Peak : 0.999969 CRC32 hash (test run) : 52B2536C CRC32 hash : 52B2536C CRC32 hash (skip zero) : 9FF242EE AccurateRip v1 signature : DFD06960 AccurateRip v2 signature : 251B5680 ->Accurately ripped (v2, confidence 1/1) Statistics Read error : 0 Jitter error (maybe fixed) : 0 Retry sector count : 0 Damaged sector count : 0
No errors occurred
End of status report
-----BEGIN XLD SIGNATURE-----9ADpAtKh5eP0U_fMqZQeJM3UzHUaxW0hc5PhZQx5XoBo.Gnqc1mXr0Ow3YMOEZ8Fv1v.qgkndMmqEW6xCvfXbiEr5ugAEs.Lg2sCzSq-----END XLD SIGNATURE-----

Содержание индексной карты (.CUE)

TITLE "Guess Who's in Town: The Songs of Andy Razaf"PERFORMER "Bobby Short"REM GENRE "Jazz"REM DATE "1987"REM DISCID 7309210BREM REPLAYGAIN_ALBUM_GAIN -4.25 dBREM REPLAYGAIN_ALBUM_PEAK 1.000000FILE "01 - Guess Who's in Town.flac" WAVE TRACK 01 AUDIO TITLE "Guess Who's in Town" ISRC USAT20181404 REM REPLAYGAIN_TRACK_GAIN -5.65 dB REM REPLAYGAIN_TRACK_PEAK 1.000000 INDEX 01 00:00:00 TRACK 02 AUDIO TITLE "Honeysuckle Rose" ISRC USAT20181405 REM REPLAYGAIN_TRACK_GAIN -4.49 dB REM REPLAYGAIN_TRACK_PEAK 1.000000 INDEX 00 03:37:48FILE "02 - Honeysuckle Rose.flac" WAVE INDEX 01 00:00:00 TRACK 03 AUDIO TITLE "How Can You Face Me?" ISRC USAT20181406 REM REPLAYGAIN_TRACK_GAIN -3.20 dB REM REPLAYGAIN_TRACK_PEAK 1.000000 INDEX 00 03:19:68FILE "03 - How Can You Face Me.flac" WAVE INDEX 01 00:00:00 TRACK 04 AUDIO TITLE "A Porter's Love Song (To a Chamber Maid)" ISRC USAT20181407 REM REPLAYGAIN_TRACK_GAIN -5.36 dB REM REPLAYGAIN_TRACK_PEAK 1.000000 INDEX 00 04:28:12FILE "04 - A Porter's Love Song (To a Chamber Maid).flac" WAVE INDEX 01 00:00:00 TRACK 05 AUDIO TITLE "Sposin'" ISRC USAT20181408 REM REPLAYGAIN_TRACK_GAIN -3.69 dB REM REPLAYGAIN_TRACK_PEAK 1.000000 INDEX 00 03:37:18FILE "05 - Sposin'.flac" WAVE INDEX 01 00:00:00 TRACK 06 AUDIO TITLE "Ain't Misbehavin'" ISRC USAT20181409 REM REPLAYGAIN_TRACK_GAIN -3.88 dB REM REPLAYGAIN_TRACK_PEAK 0.999969 INDEX 00 03:15:33FILE "06 - Ain't Misbehavin'.flac" WAVE INDEX 01 00:00:00 TRACK 07 AUDIO TITLE "Tan Manhattan" ISRC USAT20181410 REM REPLAYGAIN_TRACK_GAIN -2.06 dB REM REPLAYGAIN_TRACK_PEAK 1.000000 INDEX 00 04:21:42FILE "07 - Tan Manhattan.flac" WAVE INDEX 01 00:00:00 TRACK 08 AUDIO TITLE "Black and Blue" ISRC USAT20181411 REM REPLAYGAIN_TRACK_GAIN -4.34 dB REM REPLAYGAIN_TRACK_PEAK 1.000000 INDEX 00 02:09:08FILE "08 - Black and Blue.flac" WAVE INDEX 01 00:00:00 TRACK 09 AUDIO TITLE "Make Believe Ballroom" ISRC USAT20181412 REM REPLAYGAIN_TRACK_GAIN -3.54 dB REM REPLAYGAIN_TRACK_PEAK 1.000000 INDEX 00 03:52:13FILE "09 - Make Believe Ballroom.flac" WAVE INDEX 01 00:00:00 TRACK 10 AUDIO TITLE "I'm Gonna Move to the Outskirts of Town" ISRC USAT20181413 REM REPLAYGAIN_TRACK_GAIN -4.79 dB REM REPLAYGAIN_TRACK_PEAK 1.000000 INDEX 00 02:49:37FILE "10 - I'm Gonna Move to the Outskirts of Town.flac" WAVE INDEX 01 00:00:00 TRACK 11 AUDIO TITLE "Lonesome Swallow" ISRC USAT20181414 REM REPLAYGAIN_TRACK_GAIN -3.98 dB REM REPLAYGAIN_TRACK_PEAK 0.999969 INDEX 00 04:17:51FILE "11 - Lonesome Swallow.flac" WAVE INDEX 01 00:00:00

Отчет CUETools

[CUETools log; Date: 14.06.2017 20:47:24; Version: 2.1.5][CTDB TOCID: Fg7WZ2V4l71UldtLz4nrgo_1uPY-] found.Track | CTDB Status 1 | (3/3) Accurately ripped 2 | (3/3) Accurately ripped 3 | (3/3) Accurately ripped 4 | (3/3) Accurately ripped 5 | (3/3) Accurately ripped 6 | (3/3) Accurately ripped 7 | (3/3) Accurately ripped 8 | (3/3) Accurately ripped 9 | (3/3) Accurately ripped 10 | (3/3) Accurately ripped 11 | (3/3) Accurately ripped[AccurateRip ID: 00107491-008dd250-7309210b] found.Track [ CRC | V2 ] Status 01 [bfa40435|7dae8c4b] (0+1/1) Accurately ripped 02 [501a7b82|7525af5f] (0+1/1) Accurately ripped 03 [7cd25ba4|6238ed22] (0+1/1) Accurately ripped 04 [76c8bfc8|9b96d99c] (0+1/1) Accurately ripped 05 [659b2f2f|ee5c7d5b] (0+1/1) Accurately ripped 06 [c0119975|6d8a519b] (0+1/1) Accurately ripped 07 [57b13098|9bc5b0b0] (0+1/1) Accurately ripped 08 [5c0bda73|1728f620] (0+1/1) Accurately ripped 09 [7cb0f40d|df70cfb0] (0+1/1) Accurately ripped 10 [34cf6268|44e46c0e] (0+1/1) Accurately ripped 11 [dfd06960|251b5680] (0+1/1) Accurately ripped
Track Peak [ CRC32 ] [W/O NULL] -- 100,0 [8E785FC8] [63BDF2B4] 01 100,0 [1D862941] [B66F58BA] 02 100,0 [4B629F2E] [008FDD2E] 03 100,0 [75CE4787] [78C899AA] 04 100,0 [2ED69D38] [C6F7196D] 05 100,0 [64883725] [4B6DEDA9] 06 100,0 [684BD928] [E50C28F7] 07 100,0 [19AAD1CB] [29B3184E] 08 100,0 [804BA6C9] [A32E67AC] 09 100,0 [1F6C4FC4] [E360A5F9] 10 100,0 [F8D272F3] [806BBE25] 11 100,0 [52B2536C] [9FF242EE]

AllMusic Review by William Ruhlmann

Collectables Records' two-fer release of Bobby Short's 1971 tribute album to Cole Porter and his 1987 tribute album to Andy Razaf provides an interesting comparison between the two songwriters who wrote during the same period in similar styles. Porter (1891-1964), the child of wealth, was the musical voice of sophistication on Broadway from the 1920s to the 1950s; Razaf (1895-1973), an Amercan-born descendent of deposed Madagascar royalty, grew up without the privileges his family had enjoyed, a struggling black man in America. Both wrote witty songs for the stage and for elegant nightclubs, but the contrast between them was best expressed in Razaf's "A Porter's Love Song (To a Chamber Maid)," which deliberately treated of the cares of the help instead of their rich employers and punned on the name of his better known peer. Bobby Short, who has spent his career interpreting Porter's work, finally devoted a double LP largely to the songwriter's lesser known songs with Bobby Short Loves Cole Porter, even premiering three unpublished compositions. His spirited readings had just the right combination of effervescence and humor, the sense of celebration that was at the core of Porter's sensibility. Guess Who's in Town, recorded a decade and a half later, finally turned a spotlight on a lyricist whose songs ("Honeysuckle Rose," "Ain't Misbehavin'") had proven to be standards, even as the man himself was "forgotten utterly," as annotator (and eventual biographer) Barry Singer put it. Overshadowed by such collaborators as Fats Waller, Razaf nevertheless penned a catalog full of wonderful songs, some of the best of which were revived by Short with a small jazz band including Harry "Sweets" Edison among others. Put together, the two albums make for a terrific collection of show music performed by a master.

[torrentc.info]_t_5416482.torrent
Торрент: Зарегистрирован ·  [ 2017-06-15 05:42 ] ·  71b906a9c720677c4873dd6512d268052cf6defe

15 KB

Статус: проверено
Скачан: 0 раз
Размер: 587 MB
Оценка: 
(Голосов: 0)
Сказали спасибо: 0  Спасибо
Похожие темы
[Профиль]    [ЛС]
Показать сообщения:    
Ответить на тему

Текущее время: Сегодня 13:52

Часовой пояс: GMT + 7



Вы не можете начинать темы
Вы не можете отвечать на сообщения
Вы не можете редактировать свои сообщения
Вы не можете удалять свои сообщения
Вы не можете голосовать в опросах
Вы не можете прикреплять файлы к сообщениям
Вы можете скачивать файлы