(Vocal Jazz) Cassandra Wilson - Live - 2004, rec. 1991 [Winter & Winter 919 047-2], FLAC (image+.cue), lossless

Ответить на тему
Статистика раздачи [Обновить пиров]
Размер:  429 MB   |    Зарегистрирован:  6 месяцев 4 дня   |    Скачан:  1 раз

Полного источника не было: 5 месяцев 6 дней

Личеров:  3  [  0 KB/s  ]   Подробная статистика скачивающих
 
   
 
 
 
Автор Сообщение

torrentc.info

Создавать темы 13-Июн-2017 23:40

[Цитировать]

Cassandra Wilson - Live
Жанр: Vocal Jazz
Год выхода диска: 2004
Год записи: 1991
Производитель диска: Germany
Издатель (лейбл): Winter & Winter
Номер по каталогу: 919 047-2
Аудио кодек: FLAC
Тип рипа: image+.cue
Битрейт аудио: lossless
Продолжительность: 01:09:05-Track List:
1. Don't look back (5:55)
2. Soul Melange (11:35)
3. 'Round Midnight (7:58)
4. My Corner Of The Sky (9:43)
5. Desperate Move (12:07)
6. Body And Soul (9:31)
7. Rock This Calling (12:16)

Cassandra Wilson - vocals
James Weidman - piano, synthesizer
Kevin Bruce Harris - electric bass
Mark Johnson - drums

Отчёт ЕАС

Exact Audio Copy V0.99 prebeta 3 from 28. July 2007
EAC extraction logfile from 14. November 2007, 17:29
Cassandra Wilson / Live
Used drive : HL-DT-STDVD-ROM GDR8161B Adapter: 3 ID: 1
Read mode : Secure
Utilize accurate stream : Yes
Defeat audio cache : Yes
Make use of C2 pointers : No
Read offset correction : 102
Overread into Lead-In and Lead-Out : No
Fill up missing offset samples with silence : Yes
Delete leading and trailing silent blocks : No
Null samples used in CRC calculations : Yes
Used interface : Installed external ASPI interface
Used output format : User Defined Encoder
Selected bitrate : 768 kBit/s
Quality : High
Add ID3 tag : No
Command line compressor : C:\Programmi\Exact Audio Copy\FLAC\FLAC.EXE
Additional command line options : --best -V -T "date=%y" -T "genre=%m" %s
TOC of the extracted CD
Track | Start | Length | Start sector | End sector
---------------------------------------------------------
1 | 0:00.00 | 5:55.45 | 0 | 26669
2 | 5:55.45 | 11:35.60 | 26670 | 78854
3 | 17:31.30 | 7:58.27 | 78855 | 114731
4 | 25:29.57 | 9:43.30 | 114732 | 158486
5 | 35:13.12 | 12:07.03 | 158487 | 213014
6 | 47:20.15 | 9:31.62 | 213015 | 255901
7 | 56:52.02 | 12:16.00 | 255902 | 311101
Range status and errors
Selected range
Filename C:\temp_prova\cassandra\Cassandra Wilson - Live.wav
Peak level 98.4 %
Range quality 100.0 %
Copy CRC DA9C45A8
Copy OK
No errors occurred
End of status report

Спектр

Найдено : EMule

[torrentc.info]_t_1145226.torrent
Торрент: Зарегистрирован ·  [ 2017-06-13 23:36 ] ·  09b6ed55792a27f20a6e7c751950acc18c4fb88f

18 KB

Статус: проверено
Скачан: 1 раз
Размер: 429 MB
Оценка: 
(Голосов: 0)
Сказали спасибо: 0  Спасибо
Похожие темы
[Профиль]    [ЛС]
Показать сообщения:    
Ответить на тему

Текущее время: Сегодня 14:03

Часовой пояс: GMT + 7



Вы не можете начинать темы
Вы не можете отвечать на сообщения
Вы не можете редактировать свои сообщения
Вы не можете удалять свои сообщения
Вы не можете голосовать в опросах
Вы не можете прикреплять файлы к сообщениям
Вы можете скачивать файлы