(Jazz Vocal) [CD] Diana Krall - All For You (A Dedication To Nat King Cole Trio)XRCD - 2010, FLAC (image+.cue), lossless

Ответить на тему
Статистика раздачи [Обновить пиров]
Размер:  275 MB   |    Зарегистрирован:  6 месяцев 4 дня   |    Скачан:  0 раз

Полного источника не было: Никогда

 
   
 
 
 
Автор Сообщение

torrentc.info

Создавать темы 13-Июн-2017 23:40

[Цитировать]

Diana Krall / All For You (A Dedication To Nat King Cole Trio)XRCD
Жанр: Jazz Vocal
Носитель: CD
Страна-производитель диска (релиза): Japan
Год издания: 2010
Издатель (лейбл): The Verve Music Group
Номер по каталогу: 532 360-9
Страна исполнителя (группы): Canada
Аудиокодек: FLAC (*.flac)
Тип рипа: image+.cue
Битрейт аудио: lossless
Продолжительность: 0:59:15
Источник (релизер): Leo246
Наличие сканов в содержимом раздачи: да
Треклист:
1. I'm An Errand Girl For Rhythm
2. Gee Baby, Ain't I Good To You
3. You Call It Madness
4. Frim Fram Sauce
5. Boulevard Of Broken Dreams
6. Baby Baby All The Time
7. Hit That Jive Jack
8. You're Looking At Me
9. I'm Thru With Love
10. Deed I Do
11. A Blossom Fell
12. If I Had You
13. When I Grow Too Old To Dream

Лог создания рипа

Exact Audio Copy V1.3 from 2. September 2016
EAC extraction logfile from 10. June 2017, 19:52
Diana Krall , / All For You (A Dedication To The Nat King Cole Trio)
Used drive : PLEXTOR DVD-RW PX-608U Adapter: 1 ID: 0
Read mode : SecureUtilize accurate stream : YesDefeat audio cache : YesMake use of C2 pointers : No
Read offset correction : 48Overread into Lead-In and Lead-Out : NoFill up missing offset samples with silence : YesDelete leading and trailing silent blocks : NoNull samples used in CRC calculations : YesUsed interface : Native Win32 interface for Win NT & 2000
Used output format : User Defined EncoderSelected bitrate : 896 kBit/sQuality : HighAdd ID3 tag : NoCommand line compressor : C:\Program Files\Exact Audio Copy\FLAC\FLAC.EXEAdditional command line options : -6 -V -T "ARTIST=%artist%" -T "TITLE=%title%" -T "ALBUM=%albumtitle%" -T "DATE=%year%" -T "TRACKNUMBER=%tracknr%" -T "GENRE=%genre%" -T "COMMENT=%comment%" -T "BAND=%albuminterpret%" -T "ALBUMARTIST=%albuminterpret%" -T "COMPOSER=%composer%" %haslyrics%--tag-from-file=LYRICS="%lyricsfile%"%haslyrics% -T "DISCNUMBER=%cdnumber%" -T "TOTALDISCS=%totalcds%" -T "TOTALTRACKS=%numtracks%" %hascover%--picture="%coverfile%"%hascover% %source% -o %dest%
TOC of the extracted CD
Track | Start | Length | Start sector | End sector --------------------------------------------------------- 1 | 0:00.00 | 2:55.70 | 0 | 13194 2 | 2:55.70 | 4:07.22 | 13195 | 31741 3 | 7:03.17 | 4:37.05 | 31742 | 52521 4 | 11:40.22 | 5:00.55 | 52522 | 75076 5 | 16:41.02 | 6:27.15 | 75077 | 104116 6 | 23:08.17 | 3:36.08 | 104117 | 120324 7 | 26:44.25 | 4:16.60 | 120325 | 139584 8 | 31:01.10 | 5:33.07 | 139585 | 164566 9 | 36:34.17 | 4:26.00 | 164567 | 184516 10 | 41:00.17 | 3:31.63 | 184517 | 200404 11 | 44:32.05 | 5:12.37 | 200405 | 223841 12 | 49:44.42 | 4:56.70 | 223842 | 246111 13 | 54:41.37 | 4:34.25 | 246112 | 266686
Range status and errors
Selected range
Filename T:\RIP\Diana Krall- All For You XRCD Japan\Diana Krall , - All For You (A Dedication To The Nat King Cole Trio).wav
Peak level 100.0 % Extraction speed 4.2 X Range quality 100.0 % Copy CRC FC68E327 Copy OK
No errors occurred
AccurateRip summary
Track 1 accurately ripped (confidence 37) [46B6CF5B] (AR v2)Track 2 accurately ripped (confidence 37) [F3E59BFD] (AR v2)Track 3 accurately ripped (confidence 37) [0A128E1B] (AR v2)Track 4 accurately ripped (confidence 37) [B57C67C4] (AR v2)Track 5 accurately ripped (confidence 37) [9F54B87B] (AR v2)Track 6 accurately ripped (confidence 37) [2457A31F] (AR v2)Track 7 accurately ripped (confidence 39) [17EA32C4] (AR v2)Track 8 accurately ripped (confidence 37) [D4254803] (AR v2)Track 9 accurately ripped (confidence 38) [7B80B4C9] (AR v2)Track 10 accurately ripped (confidence 37) [B10752A3] (AR v2)Track 11 accurately ripped (confidence 37) [4A894C85] (AR v2)Track 12 accurately ripped (confidence 38) [CC6D66E3] (AR v2)Track 13 accurately ripped (confidence 38) [3E3A036C] (AR v2)
All tracks accurately ripped
End of status report
---- CUETools DB Plugin V2.1.6
[CTDB TOCID: _snt379xEXjfhrsIqc2Msz3SLLw-] foundSubmit result: _snt379xEXjfhrsIqc2Msz3SLLw- has been confirmedTrack | CTDB Status 1 | (36/36) Accurately ripped 2 | (36/36) Accurately ripped 3 | (36/36) Accurately ripped 4 | (36/36) Accurately ripped 5 | (36/36) Accurately ripped 6 | (36/36) Accurately ripped 7 | (36/36) Accurately ripped 8 | (34/36) Accurately ripped, or (2/36) differs in 1 samples @05:31:32 9 | (36/36) Accurately ripped 10 | (34/36) Accurately ripped, or (2/36) differs in 1 samples @03:29:40 11 | (36/36) Accurately ripped 12 | (36/36) Accurately ripped 13 | (36/36) Accurately ripped
==== Log checksum 6528F85DC825DF9469BD4B0303A10353A5C7CEB196542B8C0BC49F8C0F0E82FE ====

Содержание индексной карты (.CUE)

REM GENRE JazzREM DATE 2001REM DISCID B10DE30DREM COMMENT "ExactAudioCopy v1.3"PERFORMER "Diana Krall , "TITLE "All For You (A Dedication To The Nat King Cole Trio)"REM COMPOSER ""FILE "Diana Krall , - All For You (A Dedication To The Nat King Cole Trio).flac" WAVE TRACK 01 AUDIO TITLE "I'm An Errand Girl For Rhythm" PERFORMER "Diana Krall , " REM COMPOSER "" INDEX 01 00:00:00 TRACK 02 AUDIO TITLE "Gee Baby, Ain't I Good To You" PERFORMER "Diana Krall , " REM COMPOSER "" INDEX 01 02:55:70 TRACK 03 AUDIO TITLE "You Call It Madness" PERFORMER "Diana Krall , " REM COMPOSER "" INDEX 01 07:03:17 TRACK 04 AUDIO TITLE "Frim Fram Sauce" PERFORMER "Diana Krall , " REM COMPOSER "" INDEX 01 11:40:22 TRACK 05 AUDIO TITLE "Boulevard Of Broken Dreams" PERFORMER "Diana Krall , " REM COMPOSER "" INDEX 01 16:41:02 TRACK 06 AUDIO TITLE "Baby Baby All The Time" PERFORMER "Diana Krall , " REM COMPOSER "" INDEX 01 23:08:17 TRACK 07 AUDIO TITLE "Hit That Jive Jack" PERFORMER "Diana Krall , " REM COMPOSER "" INDEX 00 26:42:31 INDEX 01 26:44:25 TRACK 08 AUDIO TITLE "You're Looking At Me" PERFORMER "Diana Krall , " REM COMPOSER "" INDEX 01 31:01:10 TRACK 09 AUDIO TITLE "I'm Thru With Love" PERFORMER "Diana Krall , " REM COMPOSER "" INDEX 01 36:34:17 TRACK 10 AUDIO TITLE "Deed I Do" PERFORMER "Diana Krall , " REM COMPOSER "" INDEX 01 41:00:17 TRACK 11 AUDIO TITLE "A Blossom Fell" PERFORMER "Diana Krall , " REM COMPOSER "" INDEX 01 44:32:05 TRACK 12 AUDIO TITLE "If I Had You" PERFORMER "Diana Krall , " REM COMPOSER "" INDEX 01 49:44:42 TRACK 13 AUDIO TITLE "When I Grow Too Old To Dream" PERFORMER "Diana Krall , " REM COMPOSER "" INDEX 00 54:39:13 INDEX 01 54:41:37

Об альбоме (сборнике)

XRCD24 K2 technology

[torrentc.info]_t_5414819.torrent
Торрент: Зарегистрирован ·  [ 2017-06-13 23:36 ] ·  83eaf5fc278aacd3a719dada6913e09dddfecc2a

12 KB

Статус: проверено
Скачан: 0 раз
Размер: 275 MB
Оценка: 
(Голосов: 0)
Сказали спасибо: 0  Спасибо
Похожие темы
[Профиль]    [ЛС]
Показать сообщения:    
Ответить на тему

Текущее время: Сегодня 13:47

Часовой пояс: GMT + 7



Вы не можете начинать темы
Вы не можете отвечать на сообщения
Вы не можете редактировать свои сообщения
Вы не можете удалять свои сообщения
Вы не можете голосовать в опросах
Вы не можете прикреплять файлы к сообщениям
Вы можете скачивать файлы