(Vocal Jazz) [CD] Amanda Brecker - Brazilian Passion - 2009 (Japan Edition), FLAC (tracks+.cue), lossless

Ответить на тему
Статистика раздачи [Обновить пиров]
Размер:  292 MB   |    Зарегистрирован:  6 месяцев 4 дня   |    Скачан:  0 раз

Полного источника не было: Никогда

 
   
 
 
 
Автор Сообщение

torrentc.info

Создавать темы 13-Июн-2017 23:40

[Цитировать]

Amanda Brecker - Brazilian Passion
Жанр: Vocal Jazz
Носитель: CD
Страна-производитель диска (релиза): Япония
Год издания: 2009
Издатель (лейбл): Birds Records
Номер по каталогу: XQDJ-1011
Аудиокодек: FLAC (*.flac)
Тип рипа: tracks+.cue
Битрейт аудио: lossless
Продолжительность: 46:54
Источник (релизер): bballer77
Наличие сканов в содержимом раздачи: да
Треклист:
01. Ai Ai Ai Ai Ai (Lins) - 4:43
02. Felicidade (Jobim-DeMoraes) - 3:24
03. Meant to Be (Brecker) - 3:00
04. Agua de Beber (Jobim-DeMoraes) - 4:06
05. On and On (Bishop) - 4:14
06. In the Sun (Brecker) - 3:34
07. Lembra de Mim (Lins) - 3:19
08. Fly Me to the Moon (Howard) - 3:05
09. Deny Deny (Brecker) - 3:33
10. Thirsty (Brecker) - 3:44
11. Nobre Vagabundo (Mercury) - 3:03
12. That Dance (Matthews) - 3:57
13. Autumn Leaves (Les Feuilles Mortes) (Cosma-Prevert) - 3:12

Лог создания рипа

Exact Audio Copy V1.3 from 2. September 2016
EAC extraction logfile from 21. January 2017, 13:02
Amanda Brecker / Brazilian Passion
Used drive : ASUS DRW-24B1ST j Adapter: 1 ID: 1
Read mode : SecureUtilize accurate stream : YesDefeat audio cache : YesMake use of C2 pointers : No
Read offset correction : 6Overread into Lead-In and Lead-Out : NoFill up missing offset samples with silence : YesDelete leading and trailing silent blocks : NoNull samples used in CRC calculations : YesUsed interface : Native Win32 interface for Win NT & 2000Gap handling : Appended to previous track
Used output format : User Defined EncoderSelected bitrate : 1024 kBit/sQuality : HighAdd ID3 tag : NoCommand line compressor : C:\Program Files\FLAC 1.3.2\win64\flac.exeAdditional command line options : -8 -e -p -V -T "ARTIST=%artist%" -T "TITLE=%title%" -T "ALBUM=%albumtitle%" -T "DATE=%year%" -T "TRACKNUMBER=%tracknr%" -T "GENRE=%genre%" -T "PERFORMER=%albuminterpret%" -T "COMPOSER=%composer%" %haslyrics%--tag-from-file=LYRICS="%lyricsfile%"%haslyrics% -T "ALBUMARTIST=%albumartist%" -T "DISCNUMBER=%cdnumber%" -T "TOTALDISCS=%totalcds%" -T "TOTALTRACKS=%numtracks%" -T "COMMENT=%comment%" %source% -o %dest%
TOC of the extracted CD
Track | Start | Length | Start sector | End sector --------------------------------------------------------- 1 | 0:00.00 | 4:43.22 | 0 | 21246 2 | 4:43.22 | 3:23.42 | 21247 | 36513 3 | 8:06.64 | 3:00.21 | 36514 | 50034 4 | 11:07.10 | 4:05.65 | 50035 | 68474 5 | 15:13.00 | 4:14.07 | 68475 | 87531 6 | 19:27.07 | 3:33.56 | 87532 | 103562 7 | 23:00.63 | 3:19.11 | 103563 | 118498 8 | 26:19.74 | 3:04.57 | 118499 | 132355 9 | 29:24.56 | 3:32.65 | 132356 | 148320 10 | 32:57.46 | 3:43.55 | 148321 | 165100 11 | 36:41.26 | 3:03.19 | 165101 | 178844 12 | 39:44.45 | 3:57.08 | 178845 | 196627 13 | 43:41.53 | 3:12.01 | 196628 | 211028
Track 1
Filename C:\Rips\Brazilian Passion (2009) {Birds XQDJ-1011} [CD FLAC]\01. Amanda Brecker - - Ai Ai Ai Ai Ai.wav
Pre-gap length 0:00:02.00
Peak level 100.0 % Extraction speed 5.2 X Track quality 100.0 % Test CRC BA049236 Copy CRC BA049236 Accurately ripped (confidence 14) [87C7C35F] (AR v2) Copy OK
Track 2
Filename C:\Rips\Brazilian Passion (2009) {Birds XQDJ-1011} [CD FLAC]\02. Amanda Brecker - - Felicidade.wav
Pre-gap length 0:00:02.98
Peak level 100.0 % Extraction speed 5.6 X Track quality 100.0 % Test CRC EA8DE159 Copy CRC EA8DE159 Accurately ripped (confidence 14) [14BF8E29] (AR v2) Copy OK
Track 3
Filename C:\Rips\Brazilian Passion (2009) {Birds XQDJ-1011} [CD FLAC]\03. Amanda Brecker - - Meant To Be.wav
Pre-gap length 0:00:01.48
Peak level 100.0 % Extraction speed 4.6 X Track quality 99.9 % Test CRC 52F370CD Copy CRC 52F370CD Accurately ripped (confidence 14) [B9787A0A] (AR v2) Copy OK
Track 4
Filename C:\Rips\Brazilian Passion (2009) {Birds XQDJ-1011} [CD FLAC]\04. Amanda Brecker - - Agua De Beber.wav
Pre-gap length 0:00:00.69
Peak level 100.0 % Extraction speed 6.5 X Track quality 100.0 % Test CRC 1AD8B6F1 Copy CRC 1AD8B6F1 Accurately ripped (confidence 14) [8C113D21] (AR v2) Copy OK
Track 5
Filename C:\Rips\Brazilian Passion (2009) {Birds XQDJ-1011} [CD FLAC]\05. Amanda Brecker - - On And On.wav
Pre-gap length 0:00:00.77
Peak level 100.0 % Extraction speed 6.9 X Track quality 100.0 % Test CRC 5412878F Copy CRC 5412878F Accurately ripped (confidence 14) [206D7908] (AR v2) Copy OK
Track 6
Filename C:\Rips\Brazilian Passion (2009) {Birds XQDJ-1011} [CD FLAC]\06. Amanda Brecker - - In The Sun.wav
Pre-gap length 0:00:00.41
Peak level 100.0 % Extraction speed 7.2 X Track quality 100.0 % Test CRC 8C8C25BC Copy CRC 8C8C25BC Accurately ripped (confidence 14) [F4D10A1F] (AR v2) Copy OK
Track 7
Filename C:\Rips\Brazilian Passion (2009) {Birds XQDJ-1011} [CD FLAC]\07. Amanda Brecker - - Lembra De Mim.wav
Pre-gap length 0:00:01.56
Peak level 100.0 % Extraction speed 7.5 X Track quality 100.0 % Test CRC 4D0B72E2 Copy CRC 4D0B72E2 Accurately ripped (confidence 14) [0F3EEDE0] (AR v2) Copy OK
Track 8
Filename C:\Rips\Brazilian Passion (2009) {Birds XQDJ-1011} [CD FLAC]\08. Amanda Brecker - - Fly Me To The Moon.wav
Pre-gap length 0:00:03.54
Peak level 100.0 % Extraction speed 7.7 X Track quality 100.0 % Test CRC 8C6E326C Copy CRC 8C6E326C Accurately ripped (confidence 14) [428DD60E] (AR v2) Copy OK
Track 9
Filename C:\Rips\Brazilian Passion (2009) {Birds XQDJ-1011} [CD FLAC]\09. Amanda Brecker - - Deny Deny.wav
Pre-gap length 0:00:02.98
Peak level 100.0 % Extraction speed 8.1 X Track quality 100.0 % Test CRC 0325C53D Copy CRC 0325C53D Accurately ripped (confidence 14) [9F60EFD4] (AR v2) Copy OK
Track 10
Filename C:\Rips\Brazilian Passion (2009) {Birds XQDJ-1011} [CD FLAC]\10. Amanda Brecker - - Thirsty.wav
Pre-gap length 0:00:00.88
Peak level 100.0 % Extraction speed 6.8 X Track quality 99.9 % Test CRC 6FD6C817 Copy CRC 6FD6C817 Accurately ripped (confidence 14) [F8BDB250] (AR v2) Copy OK
Track 11
Filename C:\Rips\Brazilian Passion (2009) {Birds XQDJ-1011} [CD FLAC]\11. Amanda Brecker - - Nobre Vagabundo.wav
Pre-gap length 0:00:03.44
Peak level 100.0 % Extraction speed 6.5 X Track quality 99.9 % Test CRC 4D3C0400 Copy CRC 4D3C0400 Accurately ripped (confidence 14) [9FDCAEC7] (AR v2) Copy OK
Track 12
Filename C:\Rips\Brazilian Passion (2009) {Birds XQDJ-1011} [CD FLAC]\12. Amanda Brecker - - That Dance.wav
Pre-gap length 0:00:03.34
Peak level 100.0 % Extraction speed 9.1 X Track quality 100.0 % Test CRC 09C30800 Copy CRC 09C30800 Accurately ripped (confidence 13) [46A3D341] (AR v2) Copy OK
Track 13
Filename C:\Rips\Brazilian Passion (2009) {Birds XQDJ-1011} [CD FLAC]\13. Amanda Brecker - - Autumn Leaves (Les Feuilles Mortes).wav
Pre-gap length 0:00:01.02
Peak level 99.9 % Extraction speed 9.0 X Track quality 100.0 % Test CRC CAF9E09E Copy CRC CAF9E09E Accurately ripped (confidence 13) [197E1D3E] (AR v2) Copy OK
All tracks accurately ripped
No errors occurred
End of status report
---- CUETools DB Plugin V2.1.6
[CTDB TOCID: IEcin7vAorNiw_JWFDJXkf5ppFQ-] foundSubmit result: IEcin7vAorNiw_JWFDJXkf5ppFQ- has been confirmedTrack | CTDB Status 1 | (18/19) Accurately ripped 2 | (19/19) Accurately ripped 3 | (19/19) Accurately ripped 4 | (19/19) Accurately ripped 5 | (19/19) Accurately ripped 6 | (19/19) Accurately ripped 7 | (19/19) Accurately ripped 8 | (18/19) Accurately ripped 9 | (19/19) Accurately ripped 10 | (19/19) Accurately ripped 11 | (19/19) Accurately ripped 12 | (19/19) Accurately ripped 13 | (19/19) Accurately ripped
==== Log checksum DAC2D897DF2BA93873FAEB685C8E440EE84AD277D1CE5B63B9C24B74F3D8531C ====

Содержание индексной карты (.CUE)

REM GENRE JazzREM DATE 2009REM DISCID CC0AFD0DREM COMMENT "ExactAudioCopy v1.3"CATALOG 4580220380114PERFORMER "Amanda Brecker"TITLE "Brazilian Passion"FILE "01 - Ai Ai Ai Ai Ai.wav" WAVE TRACK 01 AUDIO TITLE "Ai Ai Ai Ai Ai" PERFORMER "Amanda Brecker" ISRC JPG510900470 INDEX 01 00:00:00 TRACK 02 AUDIO TITLE "Felicidade" PERFORMER "Amanda Brecker" ISRC JPG510900480 INDEX 00 04:40:23FILE "02 - Felicidade.wav" WAVE INDEX 01 00:00:00 TRACK 03 AUDIO TITLE "Meant to Be" PERFORMER "Amanda Brecker" ISRC JPG510900490 INDEX 00 03:22:06FILE "03 - Meant to Be.wav" WAVE INDEX 01 00:00:00 TRACK 04 AUDIO TITLE "Agua de Beber" PERFORMER "Amanda Brecker" ISRC JPG510900500 INDEX 00 02:59:44FILE "04 - Agua de Beber.wav" WAVE INDEX 01 00:00:00 TRACK 05 AUDIO TITLE "On and On" PERFORMER "Amanda Brecker" ISRC JPG510900510 INDEX 00 04:05:07FILE "05 - On and On.wav" WAVE INDEX 01 00:00:00 TRACK 06 AUDIO TITLE "In the Sun" PERFORMER "Amanda Brecker" ISRC JPG510900520 INDEX 00 04:13:51FILE "06 - In the Sun.wav" WAVE INDEX 01 00:00:00 TRACK 07 AUDIO TITLE "Lembra de Mim" PERFORMER "Amanda Brecker" ISRC JPG510900530 INDEX 00 03:32:14FILE "07 - Lembra de Mim.wav" WAVE INDEX 01 00:00:00 TRACK 08 AUDIO TITLE "Fly Me to the Moon" PERFORMER "Amanda Brecker" ISRC JPG510900540 INDEX 00 03:15:45FILE "08 - Fly Me to the Moon.wav" WAVE INDEX 01 00:00:00 TRACK 09 AUDIO TITLE "Deny Deny" PERFORMER "Amanda Brecker" ISRC JPG510900550 INDEX 00 03:01:58FILE "09 - Deny Deny.wav" WAVE INDEX 01 00:00:00 TRACK 10 AUDIO TITLE "Thirsty" PERFORMER "Amanda Brecker" ISRC JPG510900560 INDEX 00 03:31:74FILE "10 - Thirsty.wav" WAVE INDEX 01 00:00:00 TRACK 11 AUDIO TITLE "Nobre Vagabundo" PERFORMER "Amanda Brecker" ISRC JPG510900570 INDEX 00 03:40:22FILE "11 - Nobre Vagabundo.wav" WAVE INDEX 01 00:00:00 TRACK 12 AUDIO TITLE "That Dance" PERFORMER "Amanda Brecker" ISRC JPG510900580 INDEX 00 02:59:68FILE "12 - That Dance.wav" WAVE INDEX 01 00:00:00 TRACK 13 AUDIO TITLE "Autumn Leaves (Les Feuilles Mortes)" PERFORMER "Amanda Brecker" ISRC JPG510900590 INDEX 00 03:56:06FILE "13 - Autumn Leaves (Les Feuilles Mortes).wav" WAVE INDEX 01 00:00:00

Отчет CUETools

[CUETools log; Date: 10.06.2017 23:44:26; Version: 2.1.5][CTDB TOCID: IEcin7vAorNiw_JWFDJXkf5ppFQ-] found.Track | CTDB Status 1 | (23/24) Accurately ripped 2 | (24/24) Accurately ripped 3 | (23/24) Accurately ripped 4 | (24/24) Accurately ripped 5 | (24/24) Accurately ripped 6 | (24/24) Accurately ripped 7 | (24/24) Accurately ripped 8 | (23/24) Accurately ripped 9 | (24/24) Accurately ripped 10 | (24/24) Accurately ripped 11 | (24/24) Accurately ripped 12 | (24/24) Accurately ripped 13 | (24/24) Accurately ripped[AccurateRip ID: 00172a41-00e57da8-cc0afd0d] found.Track [ CRC | V2 ] Status 01 [509b532b|87c7c35f] (09+16/25) Accurately ripped 02 [a65141f3|14bf8e29] (09+16/25) Accurately ripped 03 [222b35c1|b9787a0a] (09+16/25) Accurately ripped 04 [5c6750b8|8c113d21] (09+16/25) Accurately ripped 05 [9f30270a|206d7908] (09+16/25) Accurately ripped 06 [d74ab089|f4d10a1f] (09+16/25) Accurately ripped 07 [50d30bf8|0f3eede0] (09+16/25) Accurately ripped 08 [1f2c0b95|428dd60e] (09+16/25) Accurately ripped 09 [f071bf77|9f60efd4] (09+16/25) Accurately ripped 10 [2688c0f3|f8bdb250] (09+16/25) Accurately ripped 11 [968db236|9fdcaec7] (09+16/25) Accurately ripped 12 [a5aa9bdf|46a3d341] (09+15/24) Accurately ripped 13 [e4cb55ad|197e1d3e] (09+15/24) Accurately ripped
Track Peak [ CRC32 ] [W/O NULL] [ LOG ] -- 100,0 [9B39718B] [1CA88CD5] 01 100,0 [BA049236] [773F6C07] CRC32 02 100,0 [EA8DE159] [50893E1D] CRC32 03 100,0 [52F370CD] [03F9E2B2] CRC32 04 100,0 [1AD8B6F1] [6468DEE8] CRC32 05 100,0 [5412878F] [6F08132D] CRC32 06 100,0 [8C8C25BC] [5DDAB1AB] CRC32 07 100,0 [4D0B72E2] [43896F73] CRC32 08 100,0 [8C6E326C] [04D9C463] CRC32 09 100,0 [0325C53D] [1F979E24] CRC32 10 100,0 [6FD6C817] [EFC4EE6A] CRC32 11 100,0 [4D3C0400] [D7A1FA6F] CRC32 12 100,0 [09C30800] [8DB3151B] CRC32 13 99,9 [CAF9E09E] [E1C552EB] CRC32

Об альбоме (сборнике)

Amanda Brecker is a talented singer/songwriter and daughter of trumpeter Randy Brecker and pianist/singer Eliane Elias. Her debut CD Here I Am became an instant hit in Japan. Now comes a highly anticipated sophomore release Brazillian Passion, which was recorded almost exactly a year later. Her first two CDs have both earned the coveted status of Swing Journal Gold Disc, which is indeed a rare feat!
While Amanda's debut album was a pop album with jazz sensibilities, this second album focuses on her Brazillian influence. After all, her mother is a Carioca, and the first language she learned as a toddler was Portuguese! In this cosmopolitan album, she sings five songs in Portuguese, seven in English (including four written by herself) and even one in French ("Autumn Leaves").
Co-producer and arranger David Matthews and star saxophonist Andy Snitzer return to provide musical support. The presence of Ivan Lins as guest vocalist on two songs -- both written by Lins -- is a big plus and must have been a huge honor for the young Amanda. The band, which includes Oscar Castro Neves on guitar and two Brazillian percussionists, provides authentic Brazillian rhythm feel and flavor. Amanda's clear and sunny voice is attractive throughout.
This is, indeed, a very impressive second album from a young artist. Well done!

Состав

Amanda Brecker - vocals, piano (#6)
Oscar Castro-Neves - acoustic guitar
Ross Traut - electric guitar
Andy Ezrin - acoustic piano, electric piano
Zev Katz - electric bass
Ray Marchica - drums (#1,3,7,9-12)
Rafael Barata - drums, percussion
Ivan Lins - vocals (#1,7)
Andy Snitzer - tenor saxophone (#1,6-8,11)
Recorded at Sear Sound Studio and 1 East Studio, New York on March 27-31, 2009.

[torrentc.info]_t_5414907.torrent
Торрент: Зарегистрирован ·  [ 2017-06-13 23:36 ] ·  4da2185475dc0a5bfe00622b59075dfb67853baa

13 KB

Статус: проверено
Скачан: 0 раз
Размер: 292 MB
Оценка: 
(Голосов: 0)
Сказали спасибо: 0  Спасибо
Похожие темы
[Профиль]    [ЛС]
Показать сообщения:    
Ответить на тему

Текущее время: Сегодня 14:00

Часовой пояс: GMT + 7



Вы не можете начинать темы
Вы не можете отвечать на сообщения
Вы не можете редактировать свои сообщения
Вы не можете удалять свои сообщения
Вы не можете голосовать в опросах
Вы не можете прикреплять файлы к сообщениям
Вы можете скачивать файлы