(Vocal Jazz) Nina Simone - Broadway... Blues... Ballads - 2006, FLAC (tracks+.cue), lossless

Ответить на тему
Статистика раздачи [Обновить пиров]
Размер:  210 MB   |    Зарегистрирован:  6 месяцев 12 дней   |    Скачан:  0 раз

Полного источника не было: Никогда

 
   
 
 
 
Автор Сообщение

torrentc.info

Создавать темы 05-Июн-2017 22:32

[Цитировать]

Nina Simone - Broadway... Blues... Ballads
Жанр: Vocal Jazz
Год выхода диска: 2006 (recorded 1964)
Лейбл: Philips
Аудио кодек: FLAC
Тип рипа: tracks+.cue
Битрейт аудио: lossless
Продолжительность: 0:37:30
Трэклист:
01. Don't Let Me Be Misunderstood (2:49)
02. Night Song (3:07)
03. The Laziest Gal In Town (2:20)
04. Something Wonderful (2:46)
05. Don't Take All Night (2:55)
06. Nobody (4:19)
07. I Am Blessed (2:58)
08. Oh This I'm Sure (2:38)
09. See-Line Woman (2:38)
10. Our Love (Will See Us Through) (3:01)
11. How Can I (2:05)
12. The Last Rose Of Summer (3:09)
13. A Monster (2:47)

EAC log

Exact Audio Copy V0.99 prebeta 5 from 4. May 2009
EAC extraction logfile from 30. October 2009, 18:22
Nina Simone / Broadway Blues Ballads
Used drive : PLEXTOR CD-R PREMIUM2 Adapter: 1 ID: 1
Read mode : SecureUtilize accurate stream : YesDefeat audio cache : YesMake use of C2 pointers : No
Read offset correction : 30Overread into Lead-In and Lead-Out : NoFill up missing offset samples with silence : YesDelete leading and trailing silent blocks : NoNull samples used in CRC calculations : YesUsed interface : Installed external ASPI interfaceGap handling : Appended to previous track
Used output format : User Defined EncoderSelected bitrate : 32 kBit/sQuality : HighAdd ID3 tag : NoCommand line compressor : C:\Programmi\FLAC\flac.exeAdditional command line options : -8 -V -T "ARTIST=%a" -T "TITLE=%t" -T "ALBUM=%g" -T "DATE=%y" -T "TRACKNUMBER=%n" -T "GENRE=%m" -T "COMMENT=EAC FLAC -8" %s
TOC of the extracted CD
Track | Start | Length | Start sector | End sector --------------------------------------------------------- 1 | 0:00.00 | 2:48.57 | 0 | 12656 2 | 2:48.57 | 3:06.55 | 12657 | 26661 3 | 5:55.37 | 2:19.70 | 26662 | 37156 4 | 8:15.32 | 2:46.23 | 37157 | 49629 5 | 11:01.55 | 2:54.62 | 49630 | 62741 6 | 13:56.42 | 4:18.40 | 62742 | 82131 7 | 18:15.07 | 2:57.38 | 82132 | 95444 8 | 21:12.45 | 2:37.60 | 95445 | 107279 9 | 23:50.30 | 2:38.32 | 107280 | 119161 10 | 26:28.62 | 3:01.10 | 119162 | 132746 11 | 29:29.72 | 2:05.20 | 132747 | 142141 12 | 31:35.17 | 3:08.40 | 142142 | 156281 13 | 34:43.57 | 2:47.03 | 156282 | 168809
Track 1
Filename D:\My Rip\01 - Don't Let Me Be Misunderstood.wav
Pre-gap length 0:00:02.00
Peak level 98.8 % Track quality 100.0 % Test CRC 580E8DD8 Copy CRC 580E8DD8 Accurately ripped (confidence 3) [A752B63E] Copy OK
Track 2
Filename D:\My Rip\02 - Night Song.wav
Pre-gap length 0:00:02.56
Peak level 98.8 % Track quality 100.0 % Test CRC 7DA5780E Copy CRC 7DA5780E Accurately ripped (confidence 3) [0532A3E2] Copy OK
Track 3
Filename D:\My Rip\03 - The Laziest Gal In Town.wav
Pre-gap length 0:00:03.49
Peak level 98.8 % Track quality 100.0 % Test CRC 505F50A9 Copy CRC 505F50A9 Accurately ripped (confidence 3) [744A9FF6] Copy OK
Track 4
Filename D:\My Rip\04 - Something Wonderful.wav
Pre-gap length 0:00:03.76
Peak level 88.0 % Track quality 100.0 % Test CRC 17309EC2 Copy CRC 17309EC2 Accurately ripped (confidence 3) [95C14085] Copy OK
Track 5
Filename D:\My Rip\05 - Don't Take All Night.wav
Pre-gap length 0:00:03.97
Peak level 93.2 % Track quality 100.0 % Test CRC C0FE994C Copy CRC C0FE994C Accurately ripped (confidence 3) [FC4F3EC5] Copy OK
Track 6
Filename D:\My Rip\06 - Nobody.wav
Pre-gap length 0:00:04.22
Peak level 98.8 % Track quality 100.0 % Test CRC 3004F00D Copy CRC 3004F00D Accurately ripped (confidence 3) [DEE40139] Copy OK
Track 7
Filename D:\My Rip\07 - I Am Blessed.wav
Pre-gap length 0:00:03.00
Peak level 93.2 % Track quality 100.0 % Test CRC A72DA561 Copy CRC A72DA561 Accurately ripped (confidence 3) [5A3A04E9] Copy OK
Track 8
Filename D:\My Rip\08 - Oh This I'm Sure.wav
Pre-gap length 0:00:03.10
Peak level 88.0 % Track quality 100.0 % Test CRC C0073943 Copy CRC C0073943 Accurately ripped (confidence 3) [E44DB40F] Copy OK
Track 9
Filename D:\My Rip\09 - See-Line Woman.wav
Pre-gap length 0:00:04.57
Peak level 98.8 % Track quality 100.0 % Test CRC 5DD9D7BC Copy CRC 5DD9D7BC Accurately ripped (confidence 3) [D45E8282] Copy OK
Track 10
Filename D:\My Rip\10 - Our Love (Will See Us Through).wav
Pre-gap length 0:00:03.00
Peak level 98.8 % Track quality 100.0 % Test CRC C946CB39 Copy CRC C946CB39 Accurately ripped (confidence 3) [4256643C] Copy OK
Track 11
Filename D:\My Rip\11 - How Can I.wav
Pre-gap length 0:00:02.89
Peak level 83.0 % Track quality 100.0 % Test CRC 08041B9A Copy CRC 08041B9A Accurately ripped (confidence 3) [41CE3CEB] Copy OK
Track 12
Filename D:\My Rip\12 - The Last Rose Of Summer.wav
Pre-gap length 0:00:02.82
Peak level 74.0 % Track quality 100.0 % Test CRC 9B74FF61 Copy CRC 9B74FF61 Accurately ripped (confidence 3) [C7FAE2AD] Copy OK
Track 13
Filename D:\My Rip\13 - A Monster.wav
Pre-gap length 0:00:05.06
Peak level 66.2 % Track quality 99.9 % Test CRC D1C50EEA Copy CRC D1C50EEA Accurately ripped (confidence 3) [30393602] Copy OK
All tracks accurately ripped
No errors occurred
End of status report

Audiocheker's log

Started at: воскресенье, 01. 11. 2009. - 1:38.50
13 files found
01 -===- G:\Downloads\Nina Simone - Broadway Blues Ballads (1964) [FLAC] {0602498886953}\01 - Don't Let Me Be Misunderstood.flac
Extracted successfully
Conclusion: this track is CDDA with probability 100%
Tempfile successfully deleted.
02 -===- G:\Downloads\Nina Simone - Broadway Blues Ballads (1964) [FLAC] {0602498886953}\02 - Night Song.flac
Extracted successfully
Conclusion: this track is CDDA with probability 99%
Tempfile successfully deleted.
03 -===- G:\Downloads\Nina Simone - Broadway Blues Ballads (1964) [FLAC] {0602498886953}\03 - The Laziest Gal In Town.flac
Extracted successfully
Conclusion: this track is CDDA with probability 100%
Tempfile successfully deleted.
04 -===- G:\Downloads\Nina Simone - Broadway Blues Ballads (1964) [FLAC] {0602498886953}\04 - Something Wonderful.flac
Extracted successfully
Conclusion: this track is CDDA with probability 99%
Tempfile successfully deleted.
05 -===- G:\Downloads\Nina Simone - Broadway Blues Ballads (1964) [FLAC] {0602498886953}\05 - Don't Take All Night.flac
Extracted successfully
Conclusion: this track is CDDA with probability 99%
Tempfile successfully deleted.
06 -===- G:\Downloads\Nina Simone - Broadway Blues Ballads (1964) [FLAC] {0602498886953}\06 - Nobody.flac
Extracted successfully
Conclusion: this track is CDDA with probability 100%
Tempfile successfully deleted.
07 -===- G:\Downloads\Nina Simone - Broadway Blues Ballads (1964) [FLAC] {0602498886953}\07 - I Am Blessed.flac
Extracted successfully
Conclusion: this track is CDDA with probability 100%
Tempfile successfully deleted.
08 -===- G:\Downloads\Nina Simone - Broadway Blues Ballads (1964) [FLAC] {0602498886953}\08 - Oh This I'm Sure.flac
Extracted successfully
Conclusion: this track is CDDA with probability 99%
Tempfile successfully deleted.
09 -===- G:\Downloads\Nina Simone - Broadway Blues Ballads (1964) [FLAC] {0602498886953}\09 - See-Line Woman.flac
Extracted successfully
Conclusion: this track is CDDA with probability 100%
Tempfile successfully deleted.
10 -===- G:\Downloads\Nina Simone - Broadway Blues Ballads (1964) [FLAC] {0602498886953}\10 - Our Love (Will See Us Through).flac
Extracted successfully
Conclusion: this track is CDDA with probability 99%
Tempfile successfully deleted.
11 -===- G:\Downloads\Nina Simone - Broadway Blues Ballads (1964) [FLAC] {0602498886953}\11 - How Can I.flac
Extracted successfully
Conclusion: this track is CDDA with probability 100%
Tempfile successfully deleted.
12 -===- G:\Downloads\Nina Simone - Broadway Blues Ballads (1964) [FLAC] {0602498886953}\12 - The Last Rose Of Summer.flac
Extracted successfully
Conclusion: this track is CDDA with probability 100%
Tempfile successfully deleted.
13 -===- G:\Downloads\Nina Simone - Broadway Blues Ballads (1964) [FLAC] {0602498886953}\13 - A Monster.flac
Extracted successfully
Conclusion: this track is CDDA with probability 100%
Tempfile successfully deleted.
Finished at: воскресенье, 01. 11. 2009. - 1:49.11 (operation time: 0:10.21)

.cue

REM GENRE Vocal
REM DATE 1964
REM DISCID BF08CA0D
REM COMMENT "ExactAudioCopy v0.99pb5"
PERFORMER "Nina Simone"
TITLE "Broadway Blues Ballads"
FILE "01 - Don't Let Me Be Misunderstood.wav" WAVE
TRACK 01 AUDIO
TITLE "Don't Let Me Be Misunderstood"
PERFORMER "Nina Simone"
INDEX 01 00:00:00
TRACK 02 AUDIO
TITLE "Night Song"
PERFORMER "Nina Simone"
INDEX 00 02:46:15
FILE "02 - Night Song.wav" WAVE
INDEX 01 00:00:00
TRACK 03 AUDIO
TITLE "The Laziest Gal In Town"
PERFORMER "Nina Simone"
INDEX 00 03:03:18
FILE "03 - The Laziest Gal In Town.wav" WAVE
INDEX 01 00:00:00
TRACK 04 AUDIO
TITLE "Something Wonderful"
PERFORMER "Nina Simone"
INDEX 00 02:16:13
FILE "04 - Something Wonderful.wav" WAVE
INDEX 01 00:00:00
TRACK 05 AUDIO
TITLE "Don't Take All Night"
PERFORMER "Nina Simone"
INDEX 00 02:42:25
FILE "05 - Don't Take All Night.wav" WAVE
INDEX 01 00:00:00
TRACK 06 AUDIO
TITLE "Nobody"
PERFORMER "Nina Simone"
INDEX 00 02:50:45
FILE "06 - Nobody.wav" WAVE
INDEX 01 00:00:00
TRACK 07 AUDIO
TITLE "I Am Blessed"
PERFORMER "Nina Simone"
INDEX 00 04:15:40
FILE "07 - I Am Blessed.wav" WAVE
INDEX 01 00:00:00
TRACK 08 AUDIO
TITLE "Oh This I'm Sure"
PERFORMER "Nina Simone"
INDEX 00 02:54:30
FILE "08 - Oh This I'm Sure.wav" WAVE
INDEX 01 00:00:00
TRACK 09 AUDIO
TITLE "See-Line Woman"
PERFORMER "Nina Simone"
INDEX 00 02:33:17
FILE "09 - See-Line Woman.wav" WAVE
INDEX 01 00:00:00
TRACK 10 AUDIO
TITLE "Our Love (Will See Us Through)"
PERFORMER "Nina Simone"
INDEX 00 02:35:32
FILE "10 - Our Love (Will See Us Through).wav" WAVE
INDEX 01 00:00:00
TRACK 11 AUDIO
TITLE "How Can I"
PERFORMER "Nina Simone"
INDEX 00 02:58:18
FILE "11 - How Can I.wav" WAVE
INDEX 01 00:00:00
TRACK 12 AUDIO
TITLE "The Last Rose Of Summer"
PERFORMER "Nina Simone"
INDEX 00 02:02:33
FILE "12 - The Last Rose Of Summer.wav" WAVE
INDEX 01 00:00:00
TRACK 13 AUDIO
TITLE "A Monster"
PERFORMER "Nina Simone"
INDEX 00 03:03:35
FILE "13 - A Monster.wav" WAVE
INDEX 01 00:00:00
Доп. информация:
Источник - другой трекер. ер очень известный. Сканы в комплекте.
Внимание! Торрент-файл перезалит без изменения содержимого раздачи в связи с просьбой администрации снять флаг "Приватная раздача". Скачавшим ранее просьба перекачать торрент-файл, перехешировать содержимое и присоединиться к раздаче.

[torrentc.info]_t_2370610.torrent
Торрент: Зарегистрирован ·  [ 2017-06-05 22:30 ] ·  ad1e101f9c923886de12e485b7d056743ccbc469

18 KB

Статус: проверено
Скачан: 0 раз
Размер: 210 MB
Оценка: 
(Голосов: 0)
Сказали спасибо: 0  Спасибо
Похожие темы
[Профиль]    [ЛС]
Показать сообщения:    
Ответить на тему

Текущее время: Сегодня 13:50

Часовой пояс: GMT + 7



Вы не можете начинать темы
Вы не можете отвечать на сообщения
Вы не можете редактировать свои сообщения
Вы не можете удалять свои сообщения
Вы не можете голосовать в опросах
Вы не можете прикреплять файлы к сообщениям
Вы можете скачивать файлы