(Heavy Metal, Thrash Metal, Power Metal, Melodic Death Metal, Folk Metal) [CD] VA - A Tribute To Iron Maiden (Metal Hammer) - 2017, FLAC (image+.cue), lossless

Ответить на тему
Статистика раздачи [Обновить пиров]
Размер:  385 MB   |    Зарегистрирован:  1 год 3 месяца   |    Скачан:  0 раз

Полного источника не было: Никогда

 
   
 
 
 
Автор Сообщение

torrentc.info

Создавать темы 21-Май-2017 00:37

[Цитировать]

A Tribute To Iron Maiden (Metal Hammer)
Жанр: Heavy Metal, Thrash Metal, Power Metal, Melodic Death Metal, Folk Metal
Носитель: CD
Страна-производитель диска (релиза): Germany, U.S.A., Sweden, Faroe Islands
Год издания: 2017
Издатель (лейбл): Metal Hammer
Номер по каталогу: N/A
Страна исполнителя (группы): Germany
Аудиокодек: FLAC (*.flac)
Тип рипа: image+.cue
Битрейт аудио: lossless
Продолжительность: 48:54
Источник (релизер): My CD
Наличие сканов в содержимом раздачи: да
Треклист:
01. Kreator - The Number Of The Beast 04:22
02. Trivium - Iron Maiden 03:44
03. Stone Sour - Running Free 02:56
04. Iced Earth - The Trooper 04:15
05. Powerwolf - The Evil That Men Do 04:31
06. Testament - Powerslave 06:51
07. Arch Enemy - Aces High 04:24
08. Destruction - Killers 04:53
09. Tyr - Where Eagles Dare 06:26
10. Doro (feat. Blaze Bayley) - Fear Of The Dark (Live) 06:33

Лог создания рипа

Exact Audio Copy V1.1 from 23. June 2015
EAC extraction logfile from 6. May 2017, 21:11
Various Artists / A Tribute To Iron Maiden
Used drive : HP DVD Writer 1170d Adapter: 1 ID: 1
Read mode : SecureUtilize accurate stream : YesDefeat audio cache : YesMake use of C2 pointers : No
Read offset correction : 6Overread into Lead-In and Lead-Out : NoFill up missing offset samples with silence : YesDelete leading and trailing silent blocks : NoNull samples used in CRC calculations : YesUsed interface : Native Win32 interface for Win NT & 2000
Used output format : User Defined EncoderSelected bitrate : 1024 kBit/sQuality : HighAdd ID3 tag : NoCommand line compressor : C:\Program Files (x86)\Exact Audio Copy\Flac\flac.exeAdditional command line options : -V -8 -T "Date=%year%" -T "Genre=%genre%" %source%
TOC of the extracted CD
Track | Start | Length | Start sector | End sector --------------------------------------------------------- 1 | 0:00.00 | 4:21.53 | 0 | 19627 2 | 4:21.53 | 3:43.51 | 19628 | 36403 3 | 8:05.29 | 2:55.48 | 36404 | 49576 4 | 11:01.02 | 4:15.00 | 49577 | 68701 5 | 15:16.02 | 4:31.05 | 68702 | 89031 6 | 19:47.07 | 6:50.55 | 89032 | 119836 7 | 26:37.62 | 4:24.31 | 119837 | 139667 8 | 31:02.18 | 4:52.65 | 139668 | 161632 9 | 35:55.08 | 6:26.15 | 161633 | 190597 10 | 42:21.23 | 6:33.26 | 190598 | 220098
Range status and errors
Selected range
Filename C:\EAC\Ungern666\Various Artists - A Tribute To Iron Maiden.wav
Peak level 100.0 % Extraction speed 6.8 X Range quality 100.0 % Test CRC B507A981 Copy CRC B507A981 Copy OK
No errors occurred
AccurateRip summary
Track 1 not present in databaseTrack 2 not present in databaseTrack 3 not present in databaseTrack 4 not present in databaseTrack 5 not present in databaseTrack 6 not present in databaseTrack 7 not present in databaseTrack 8 not present in databaseTrack 9 not present in databaseTrack 10 not present in database
None of the tracks are present in the AccurateRip database
End of status report
---- CUETools DB Plugin V2.1.6
[CTDB TOCID: ACLO5.hRSCXMqZL8k7Lt_o30FxI-] foundSubmit result: ACLO5.hRSCXMqZL8k7Lt_o30FxI- has been confirmedTrack | CTDB Status 1 | (17/17) Accurately ripped 2 | (17/17) Accurately ripped 3 | (17/17) Accurately ripped 4 | (17/17) Accurately ripped 5 | (17/17) Accurately ripped 6 | (17/17) Accurately ripped 7 | (17/17) Accurately ripped 8 | (17/17) Accurately ripped 9 | (17/17) Accurately ripped 10 | (17/17) Accurately ripped
==== Log checksum CB4DE1D4990AEB6997BDAC709E0623607CE72B0746EE4377FAE2EF85AB53246B ====
-Материал предназначен для ознакомления!


[torrentc.info]_t_5399193.torrent
Торрент: Зарегистрирован ·  [ 2017-05-21 00:24 ] ·  9d52f947db133fb7261648f571d46f222353d831

16 KB

Статус: проверено
Скачан: 0 раз
Размер: 385 MB
Оценка: 
(Голосов: 0)
Сказали спасибо: 0  Спасибо
Похожие темы
[Профиль]    [ЛС]
Показать сообщения:    
Ответить на тему

Текущее время: Сегодня 07:39

Часовой пояс: GMT + 7



Вы не можете начинать темы
Вы не можете отвечать на сообщения
Вы не можете редактировать свои сообщения
Вы не можете удалять свои сообщения
Вы не можете голосовать в опросах
Вы не можете прикреплять файлы к сообщениям
Вы можете скачивать файлы