(Metal, Hard Rock) [CD] VA - Dune Raiders - (Metal Hammer) - 2017, FLAC (tracks+.cue), lossless

Ответить на тему
Статистика раздачи [Обновить пиров]
Размер:  439 MB   |    Зарегистрирован:  1 год 3 месяца   |    Скачан:  0 раз

Полного источника не было: Никогда

Личеров:  1  [  0 KB/s  ]   Подробная статистика скачивающих
 
   
 
 
 
Автор Сообщение

torrentc.info

Создавать темы 21-Май-2017 00:37

[Цитировать]

Dune Raiders / (Metal Hammer)
Жанр: Metal, Hard Rock
Носитель: CD
Год издания: 2017
Издатель (лейбл): Future Publishing Ltd.
Страна исполнителя (группы): USA
Аудиокодек: FLAC (*.flac)
Тип рипа: tracks+.cue
Битрейт аудио: lossless
Продолжительность: 57:42
Источник (релизер): Apollo
Наличие сканов в содержимом раздачи: Back, CD
Треклист:
01. Mastodon / Show Yourself (03:05)
02. Steel Panther / Poontang Boomerang (03:24)
03. While She Sleeps / Silence Speaks (feat. Oli Sykes) (04:57)
04. Body Count / No Lives Matter (04:25)
05. Me and That Man / Ain't Much Loving (05:15)
06. Thy Art Is Murder / No Absolution (03:23)
07. Pallbearer / I Saw the End (06:23)
08. Code Orange / Ugly (03:10)
09. Zeal & Ardor / Children's Summon (03:09)
10. The Royal / Wildmind (03:40)
11. Hometruths / Genocide (02:41)
12. Our Hollow, Our Home / Karmadillo (03:41)
13. Borders / Comatosed (03:12)
14. Greyhaven / Brother (04:21)
15. Everyday Sidekicks / Glass House (02:48)

Лог создания рипа

Exact Audio Copy V1.3 from 2. September 2016
EAC extraction logfile from 8. May 2017, 20:27
Various Artists / Dune Raiders
Used drive : ATAPI iHAS120 X Adapter: 1 ID: 0
Read mode : SecureUtilize accurate stream : YesDefeat audio cache : YesMake use of C2 pointers : No
Read offset correction : 48Overread into Lead-In and Lead-Out : NoFill up missing offset samples with silence : YesDelete leading and trailing silent blocks : NoNull samples used in CRC calculations : YesUsed interface : Native Win32 interface for Win NT & 2000Gap handling : Appended to previous track
Used output format : User Defined EncoderSelected bitrate : 128 kBit/sQuality : HighAdd ID3 tag : NoCommand line compressor : C:\Program Files (x86)\Exact Audio Copy\Flac\flac.exeAdditional command line options : -8 -V -T "ARTIST=%artist%" -T "TITLE=%title%" -T "ALBUM=%albumtitle%" -T "DATE=%year%" -T "TRACKNUMBER=%tracknr%" -T "TOTALTRACKS=%numtracks%" -T "GENRE=%genre%" -T "ALBUMARTIST=%albumartist%" -T "ALBUM ARTIST=%albumartist%" -T "COMMENT=EAC Secure Mode, Test & Copy, AccurateRip, FLAC -8" %source%
TOC of the extracted CD
Track | Start | Length | Start sector | End sector --------------------------------------------------------- 1 | 0:00.00 | 3:05.03 | 0 | 13877 2 | 3:05.03 | 3:24.12 | 13878 | 29189 3 | 6:29.15 | 4:57.67 | 29190 | 51531 4 | 11:27.07 | 4:25.17 | 51532 | 71423 5 | 15:52.24 | 5:15.02 | 71424 | 95050 6 | 21:07.26 | 3:23.68 | 95051 | 110343 7 | 24:31.19 | 6:23.65 | 110344 | 139133 8 | 30:55.09 | 3:10.34 | 139134 | 153417 9 | 34:05.43 | 3:09.31 | 153418 | 167623 10 | 37:14.74 | 3:40.48 | 167624 | 184171 11 | 40:55.47 | 2:41.71 | 184172 | 196317 12 | 43:37.43 | 3:41.66 | 196318 | 212958 13 | 47:19.34 | 3:12.13 | 212959 | 227371 14 | 50:31.47 | 4:21.53 | 227372 | 246999 15 | 54:53.25 | 2:48.55 | 247000 | 259654
Track 1
Filename D:\Dune Raiders\01 - Mastodon - Show Yourself.wav
Pre-gap length 0:00:02.00
Peak level 99.9 % Extraction speed 2.2 X Track quality 100.0 % Test CRC 7349F67A Copy CRC 7349F67A Track not present in AccurateRip database Copy OK
Track 2
Filename D:\Dune Raiders\02 - Steel Panther - Poontang Boomerang.wav
Pre-gap length 0:00:02.00
Peak level 89.1 % Extraction speed 2.1 X Track quality 99.9 % Test CRC 00246A8B Copy CRC 00246A8B Track not present in AccurateRip database Copy OK
Track 3
Filename D:\Dune Raiders\03 - While She Sleeps - Silence Speaks (feat. Oli Sykes).wav
Pre-gap length 0:00:02.00
Peak level 96.8 % Extraction speed 2.9 X Track quality 100.0 % Test CRC 4071760B Copy CRC 4071760B Track not present in AccurateRip database Copy OK
Track 4
Filename D:\Dune Raiders\04 - Body Count - No Lives Matter.wav
Pre-gap length 0:00:02.00
Peak level 89.1 % Extraction speed 3.1 X Track quality 100.0 % Test CRC E3A1E8F4 Copy CRC E3A1E8F4 Track not present in AccurateRip database Copy OK
Track 5
Filename D:\Dune Raiders\05 - Me and That Man - Ain't Much Loving.wav
Pre-gap length 0:00:02.00
Peak level 89.1 % Extraction speed 3.1 X Track quality 99.9 % Test CRC D3FF6CEC Copy CRC D3FF6CEC Track not present in AccurateRip database Copy OK
Track 6
Filename D:\Dune Raiders\06 - Thy Art Is Murder - No Absolution.wav
Pre-gap length 0:00:02.00
Peak level 70.8 % Extraction speed 3.4 X Track quality 100.0 % Test CRC E84A8926 Copy CRC E84A8926 Track not present in AccurateRip database Copy OK
Track 7
Filename D:\Dune Raiders\07 - Pallbearer - I Saw the End.wav
Pre-gap length 0:00:02.00
Peak level 99.9 % Extraction speed 3.9 X Track quality 100.0 % Test CRC 75EFEAD1 Copy CRC 75EFEAD1 Track not present in AccurateRip database Copy OK
Track 8
Filename D:\Dune Raiders\08 - Code Orange - Ugly.wav
Pre-gap length 0:00:02.00
Peak level 94.4 % Extraction speed 3.8 X Track quality 100.0 % Test CRC BD2F214F Copy CRC BD2F214F Track not present in AccurateRip database Copy OK
Track 9
Filename D:\Dune Raiders\09 - Zeal & Ardor - Children's Summon.wav
Pre-gap length 0:00:02.00
Peak level 99.9 % Extraction speed 3.9 X Track quality 100.0 % Test CRC D16FB60A Copy CRC D16FB60A Track not present in AccurateRip database Copy OK
Track 10
Filename D:\Dune Raiders\10 - The Royal - Wildmind.wav
Pre-gap length 0:00:02.00
Peak level 94.4 % Extraction speed 4.1 X Track quality 100.0 % Test CRC 96F2F17A Copy CRC 96F2F17A Track not present in AccurateRip database Copy OK
Track 11
Filename D:\Dune Raiders\11 - Hometruths - Genocide.wav
Pre-gap length 0:00:02.00
Peak level 99.9 % Extraction speed 4.0 X Track quality 100.0 % Test CRC 87CBEB61 Copy CRC 87CBEB61 Track not present in AccurateRip database Copy OK
Track 12
Filename D:\Dune Raiders\12 - Our Hollow, Our Home - Karmadillo.wav
Pre-gap length 0:00:02.00
Peak level 70.8 % Extraction speed 4.4 X Track quality 100.0 % Test CRC 2D81A6A0 Copy CRC 2D81A6A0 Track not present in AccurateRip database Copy OK
Track 13
Filename D:\Dune Raiders\13 - Borders - Comatosed.wav
Pre-gap length 0:00:02.00
Peak level 84.1 % Extraction speed 4.4 X Track quality 100.0 % Test CRC F0C9C3AF Copy CRC F0C9C3AF Track not present in AccurateRip database Copy OK
Track 14
Filename D:\Dune Raiders\14 - Greyhaven - Brother.wav
Pre-gap length 0:00:02.00
Peak level 84.1 % Extraction speed 4.7 X Track quality 100.0 % Test CRC 5D009E56 Copy CRC 5D009E56 Track not present in AccurateRip database Copy OK
Track 15
Filename D:\Dune Raiders\15 - Everyday Sidekicks - Glass House.wav
Pre-gap length 0:00:02.00
Peak level 99.9 % Extraction speed 4.5 X Track quality 100.0 % Test CRC F528D60D Copy CRC F528D60D Track not present in AccurateRip database Copy OK
None of the tracks are present in the AccurateRip database
No errors occurred
End of status report
---- CUETools DB Plugin V2.1.6
[CTDB TOCID: MfqP0DiDVGNYJ2_e76CGdAQ8uHU-] foundSubmit result: MfqP0DiDVGNYJ2_e76CGdAQ8uHU- has been confirmedTrack | CTDB Status 1 | (2/2) Accurately ripped 2 | (2/2) Accurately ripped 3 | (2/2) Accurately ripped 4 | (2/2) Accurately ripped 5 | (2/2) Accurately ripped 6 | (2/2) Accurately ripped 7 | (2/2) Accurately ripped 8 | (2/2) Accurately ripped 9 | (2/2) Accurately ripped 10 | (2/2) Accurately ripped 11 | (2/2) Accurately ripped 12 | (2/2) Accurately ripped 13 | (2/2) Accurately ripped 14 | (2/2) Accurately ripped 15 | (2/2) Accurately ripped
==== Log checksum A614DD6664375D16F43F11315ED0001846AE3D796CCE137E9225BC1D42665BA2 ====

Содержание индексной карты (.CUE)

REM GENRE MetalREM DATE 2017REM DISCID E70D860FREM COMMENT "ExactAudioCopy v1.3"PERFORMER "Various Artists"TITLE "Dune Raiders"REM COMPOSER ""FILE "01 - Mastodon - Show Yourself.wav" WAVE TRACK 01 AUDIO TITLE "Show Yourself" PERFORMER "Mastodon" REM COMPOSER "" INDEX 01 00:00:00 TRACK 02 AUDIO TITLE "Poontang Boomerang" PERFORMER "Steel Panther" REM COMPOSER "" INDEX 00 03:03:03FILE "02 - Steel Panther - Poontang Boomerang.wav" WAVE INDEX 01 00:00:00 TRACK 03 AUDIO TITLE "Silence Speaks (feat. Oli Sykes)" PERFORMER "While She Sleeps" REM COMPOSER "" INDEX 00 03:22:12FILE "03 - While She Sleeps - Silence Speaks (feat. Oli Sykes).wav" WAVE INDEX 01 00:00:00 TRACK 04 AUDIO TITLE "No Lives Matter" PERFORMER "Body Count" REM COMPOSER "" INDEX 00 04:55:67FILE "04 - Body Count - No Lives Matter.wav" WAVE INDEX 01 00:00:00 TRACK 05 AUDIO TITLE "Ain't Much Loving" PERFORMER "Me and That Man" REM COMPOSER "" INDEX 00 04:23:17FILE "05 - Me and That Man - Ain't Much Loving.wav" WAVE INDEX 01 00:00:00 TRACK 06 AUDIO TITLE "No Absolution" PERFORMER "Thy Art Is Murder" REM COMPOSER "" INDEX 00 05:13:02FILE "06 - Thy Art Is Murder - No Absolution.wav" WAVE INDEX 01 00:00:00 TRACK 07 AUDIO TITLE "I Saw the End" PERFORMER "Pallbearer" REM COMPOSER "" INDEX 00 03:21:68FILE "07 - Pallbearer - I Saw the End.wav" WAVE INDEX 01 00:00:00 TRACK 08 AUDIO TITLE "Ugly" PERFORMER "Code Orange" REM COMPOSER "" INDEX 00 06:21:65FILE "08 - Code Orange - Ugly.wav" WAVE INDEX 01 00:00:00 TRACK 09 AUDIO TITLE "Children's Summon" PERFORMER "Zeal & Ardor" REM COMPOSER "" INDEX 00 03:08:34FILE "09 - Zeal & Ardor - Children's Summon.wav" WAVE INDEX 01 00:00:00 TRACK 10 AUDIO TITLE "Wildmind" PERFORMER "The Royal" REM COMPOSER "" INDEX 00 03:07:31FILE "10 - The Royal - Wildmind.wav" WAVE INDEX 01 00:00:00 TRACK 11 AUDIO TITLE "Genocide" PERFORMER "Hometruths" REM COMPOSER "" INDEX 00 03:38:48FILE "11 - Hometruths - Genocide.wav" WAVE INDEX 01 00:00:00 TRACK 12 AUDIO TITLE "Karmadillo" PERFORMER "Our Hollow, Our Home" REM COMPOSER "" INDEX 00 02:39:71FILE "12 - Our Hollow, Our Home - Karmadillo.wav" WAVE INDEX 01 00:00:00 TRACK 13 AUDIO TITLE "Comatosed" PERFORMER "Borders" REM COMPOSER "" INDEX 00 03:39:66FILE "13 - Borders - Comatosed.wav" WAVE INDEX 01 00:00:00 TRACK 14 AUDIO TITLE "Brother" PERFORMER "Greyhaven" REM COMPOSER "" INDEX 00 03:10:13FILE "14 - Greyhaven - Brother.wav" WAVE INDEX 01 00:00:00 TRACK 15 AUDIO TITLE "Glass House" PERFORMER "Everyday Sidekicks" REM COMPOSER "" INDEX 00 04:19:53FILE "15 - Everyday Sidekicks - Glass House.wav" WAVE INDEX 01 00:00:00


[torrentc.info]_t_5400596.torrent
Торрент: Зарегистрирован ·  [ 2017-05-21 00:24 ] ·  d80b8ae6e2131345999a574b6502189092c08a4b

19 KB

Статус: проверено
Скачан: 0 раз
Размер: 439 MB
Оценка: 
(Голосов: 0)
Сказали спасибо: 0  Спасибо
Похожие темы
[Профиль]    [ЛС]
Показать сообщения:    
Ответить на тему

Текущее время: Сегодня 07:36

Часовой пояс: GMT + 7



Вы не можете начинать темы
Вы не можете отвечать на сообщения
Вы не можете редактировать свои сообщения
Вы не можете удалять свои сообщения
Вы не можете голосовать в опросах
Вы не можете прикреплять файлы к сообщениям
Вы можете скачивать файлы