(Black Metal, Viking Metal) [CD] VA - A Tribute To Bathory - 5CD - 1997-2012, FLAC (image+.cue), lossless

Ответить на тему
Статистика раздачи [Обновить пиров]
Размер:  2.15 GB   |    Зарегистрирован:  1 год 3 месяца   |    Скачан:  0 раз

Полного источника не было: Никогда

Личеров:  1  [  0 KB/s  ]   Подробная статистика скачивающих
 
   
 
 
 
Автор Сообщение

torrentc.info

Создавать темы 21-Май-2017 00:37

[Цитировать]

A Tribute To Bathory / 5CD

Жанр: Black Metal, Viking Metal
Носитель: CD
Страна-производитель диска (релиза): Italy, Russia, Hungary, UK
Год издания: 1997-2012
Страна исполнителя (группы): Other
Аудиокодек: FLAC (*.flac)
Тип рипа: image+.cue
Битрейт аудио: lossless
Источник (релизер): указаны в спойлере
Наличие сканов в содержимом раздачи: да

1997 - Hellas Salutes The Vikings [Metal Invader, MICD0001, Italy]

01. Odens Ride Over Nordland / A Fine Day To Die (10:50)
02. Call From The Grave (4:22)
03. The Woodwoman (6:11)
04. The Return Of The Darkness And Evil (4:19)
05. Sadist (Tormentor) (2:58)
06. Father To Son (5:11)
07. Enter The Eternal Fire (6:22)
08. Born For Burning (5:40)
09. Equimanthorn (3:41)
10. Armageddon (3:02)

Лог создания рипа

Exact Audio Copy V0.99 prebeta 5 from 4. May 2009
EAC extraction logfile from 8. June 2016, 1:02
Various Artists / A Tribute To Bathory - Hellas Salutes The Vikings
Used drive : HL-DT-STDVDRAM GP30NB40 Adapter: 2 ID: 0
Read mode : SecureUtilize accurate stream : YesDefeat audio cache : YesMake use of C2 pointers : No
Read offset correction : 6Overread into Lead-In and Lead-Out : NoFill up missing offset samples with silence : YesDelete leading and trailing silent blocks : NoNull samples used in CRC calculations : YesUsed interface : Installed external ASPI interface
Used output format : User Defined EncoderSelected bitrate : 1024 kBit/sQuality : HighAdd ID3 tag : NoCommand line compressor : C:\Program Files\Exact Audio Copy\FLAC\FLAC.EXEAdditional command line options : -V -8 -T "artist=%a" -T "title=%t" -T "album=%g" -T "date=%y" -T
"tracknumber=%n" -T "genre=%m" %s
TOC of the extracted CD
Track | Start | Length | Start sector | End sector --------------------------------------------------------- 1 | 0:00.00 | 10:50.30 | 0 | 48779 2 | 10:50.30 | 4:22.20 | 48780 | 68449 3 | 15:12.50 | 6:11.20 | 68450 | 96294 4 | 21:23.70 | 4:18.65 | 96295 | 115709 5 | 25:42.60 | 2:57.40 | 115710 | 129024 6 | 28:40.25 | 5:10.70 | 129025 | 152344 7 | 33:51.20 | 6:22.15 | 152345 | 181009 8 | 40:13.35 | 5:40.00 | 181010 | 206509 9 | 45:53.35 | 3:40.40 | 206510 | 223049 10 | 49:34.00 | 3:02.10 | 223050 | 236709
Range status and errors
Selected range
Filename C:\FLAC\Various Artists - A Tribute To Bathory - Hellas Salutes The Vikings.wav
Peak level 91.1 % Range quality 100.0 % Test CRC BCAD49EF Copy CRC BCAD49EF Copy OK
No errors occurred
AccurateRip summary
Track 1 cannot be verified as accurate (confidence 2) [5EEA4603], AccurateRip returned [5E025F3B]Track 2 cannot be verified as accurate (confidence 2) [A94257AD], AccurateRip returned [74B10057]Track 3 cannot be verified as accurate (confidence 2) [C0144543], AccurateRip returned [760B7D7B]Track 4 cannot be verified as accurate (confidence 2) [AE72DD0A], AccurateRip returned [F5D18027]Track 5 cannot be verified as accurate (confidence 2) [6ECBDBA3], AccurateRip returned [017DD255]Track 6 cannot be verified as accurate (confidence 2) [F69A680D], AccurateRip returned [D088C78B]Track 7 cannot be verified as accurate (confidence 2) [BC55094A], AccurateRip returned [9F06BCFA]Track 8 cannot be verified as accurate (confidence 2) [3262F135], AccurateRip returned [12E9318D]Track 9 cannot be verified as accurate (confidence 2) [268F1267], AccurateRip returned [015B04A7]Track 10 cannot be verified as accurate (confidence 2) [955B7941], AccurateRip returned [EF333BD8]
No tracks could be verified as accurateYou may have a different pressing from the one(s) in the database
End of status report

1998 - In Conspiracy With Satan [Fono, FO95CD, Russia]

01. In Conspiracy With Satan (2:16)
02. Sacrifice (2:53)
03. Reaper (2:59)
04. Equimanthorn (3:20)
05. A Fine Day To Die (8:27)
06. Massacre (2:34)
07. Armageddon (2:22)
08. Woman Of Dark Desires (4:29)
09. Die In Fire (3:27)
10. Enter The Eternal Fire (4:51)
11. Call From The Grave (4:34)
12. 13 Candles (6:33)
13. Raise The Dead (3:06)
14. Born For Burning (5:18)
15. War (2:08)

Лог создания рипа

Exact Audio Copy V1.1 from 23. June 2015
EAC extraction logfile from 9. April 2016, 20:24
Various / In Conspiracy With Satan - A Tribute To Bathory
Used drive : HL-DT-STDVDRAM GH24NSC0 Adapter: 1 ID: 1
Read mode : SecureUtilize accurate stream : YesDefeat audio cache : YesMake use of C2 pointers : No
Read offset correction : 6Overread into Lead-In and Lead-Out : NoFill up missing offset samples with silence : YesDelete leading and trailing silent blocks : NoNull samples used in CRC calculations : YesUsed interface : Native Win32 interface for Win NT & 2000
Used output format : User Defined EncoderSelected bitrate : 1024 kBit/sQuality : HighAdd ID3 tag : NoCommand line compressor : C:\Program Files (x86)\Exact Audio Copy\Flac\flac-1.3.1-win\win64\flac.exeAdditional command line options : -8 -V -T "Date=%year%" -T "Genre=%genre%" -T "COMMENT=ripped by 7083547"
%source%
TOC of the extracted CD
Track | Start | Length | Start sector | End sector --------------------------------------------------------- 1 | 0:00.00 | 2:16.02 | 0 | 10201 2 | 2:16.02 | 2:53.34 | 10202 | 23210 3 | 5:09.36 | 2:59.14 | 23211 | 36649 4 | 8:08.50 | 3:20.34 | 36650 | 51683 5 | 11:29.09 | 8:27.17 | 51684 | 89725 6 | 19:56.26 | 2:33.54 | 89726 | 101254 7 | 22:30.05 | 2:21.51 | 101255 | 111880 8 | 24:51.56 | 4:28.48 | 111881 | 132028 9 | 29:20.29 | 3:26.47 | 132029 | 147525 10 | 32:47.01 | 4:50.51 | 147526 | 169326 11 | 37:37.52 | 4:34.36 | 169327 | 189912 12 | 42:12.13 | 6:33.06 | 189913 | 219393 13 | 48:45.19 | 3:06.25 | 219394 | 233368 14 | 51:51.44 | 5:18.13 | 233369 | 257231 15 | 57:09.57 | 2:07.61 | 257232 | 266817
Range status and errors
Selected range
Filename G:\music\Hard&Heavy&Rock\1998 - V.A. In Conspiracy With Satan (A Tribute to Bathory)\Various -
In Conspiracy With Satan - A Tribute To Bathory.wav
Peak level 96.9 % Extraction speed 1.4 X Range quality 99.9 % Test CRC 591E1AF7 Copy CRC 591E1AF7 Copy OK
No errors occurred
AccurateRip summary
Track 1 accurately ripped (confidence 3) [6C59D557] (AR v2)Track 2 accurately ripped (confidence 3) [550D97D2] (AR v2)Track 3 accurately ripped (confidence 3) [778166EC] (AR v2)Track 4 accurately ripped (confidence 3) [B5F62310] (AR v2)Track 5 accurately ripped (confidence 3) [A30190C9] (AR v2)Track 6 accurately ripped (confidence 3) [DCF81667] (AR v2)Track 7 accurately ripped (confidence 3) [44C9FE1B] (AR v2)Track 8 accurately ripped (confidence 3) [BE0A2739] (AR v2)Track 9 accurately ripped (confidence 3) [08025D9C] (AR v2)Track 10 accurately ripped (confidence 3) [04BB4AE8] (AR v2)Track 11 accurately ripped (confidence 3) [81559E89] (AR v2)Track 12 accurately ripped (confidence 3) [C93B13D2] (AR v2)Track 13 accurately ripped (confidence 3) [3E9BAAC6] (AR v2)Track 14 accurately ripped (confidence 3) [75CECBD7] (AR v2)Track 15 accurately ripped (confidence 3) [537F94DA] (AR v2)
All tracks accurately ripped
End of status report
---- CUETools DB Plugin V2.1.6
[CTDB TOCID: otomDtFwxs32SbTi5TcsGBxalkc-] foundSubmit result: otomDtFwxs32SbTi5TcsGBxalkc- has been confirmedTrack | CTDB Status 1 | (2/2) Accurately ripped 2 | (2/2) Accurately ripped 3 | (2/2) Accurately ripped 4 | (2/2) Accurately ripped 5 | (2/2) Accurately ripped 6 | (2/2) Accurately ripped 7 | (2/2) Accurately ripped 8 | (2/2) Accurately ripped 9 | (2/2) Accurately ripped 10 | (2/2) Accurately ripped 11 | (2/2) Accurately ripped 12 | (2/2) Accurately ripped 13 | (2/2) Accurately ripped 14 | (2/2) Accurately ripped 15 | (2/2) Accurately ripped
==== Log checksum 0555FD4B1453029BD13407B46EA93B820E9EA3451FBAEFF2D245AEAD297C6A23 ====

2009 - A Hungarian~Turulheart [Hungaryan Rec., HUNCD 005, Hungary]

01. Valhalla (8:29)
02. Massacre (2:40)
03. Necromansy (3:56)
04. Lake of Fire (5:18)
05. Judgement of Posterity (4:04)
06. Gods of Thunder of Wind and of Rain (5:09)
07. Born for Burning (4:49)
08. A Fine Day to Die (8:20)
09. Keltsd fel a holtakat (Raise the Dead) (4:14)
10. Bond of Blood (8:07)
11. Equimanthorn (3:28)
12. Reap of Evil (4:20)
13. Hammerheart (5:39)

Лог создания рипа

Exact Audio Copy V1.0 beta 2 from 29. April 2011
EAC extraction logfile from 7. July 2011, 14:12
VA / Turulheart: A Hungarian Tribute to Bathory
Used drive : ATAPI DVD A DH16A6S Adapter: 4 ID: 0
Read mode : SecureUtilize accurate stream : YesDefeat audio cache : YesMake use of C2 pointers : No
Read offset correction : 6Overread into Lead-In and Lead-Out : NoFill up missing offset samples with silence : YesDelete leading and trailing silent blocks : NoNull samples used in CRC calculations : YesUsed interface : Native Win32 interface for Win NT & 2000
Used output format : Internal WAV RoutinesSample format : 44.100 Hz; 16 Bit; Stereo
TOC of the extracted CD
Track | Start | Length | Start sector | End sector --------------------------------------------------------- 1 | 0:00.00 | 8:28.67 | 0 | 38166 2 | 8:28.67 | 2:40.08 | 38167 | 50174 3 | 11:09.00 | 3:56.30 | 50175 | 67904 4 | 15:05.30 | 5:18.10 | 67905 | 91764 5 | 20:23.40 | 4:03.73 | 91765 | 110062 6 | 24:27.38 | 5:09.22 | 110063 | 133259 7 | 29:36.60 | 4:48.60 | 133260 | 154919 8 | 34:25.45 | 8:19.38 | 154920 | 192382 9 | 42:45.08 | 4:14.03 | 192383 | 211435 10 | 46:59.11 | 8:07.19 | 211436 | 247979 11 | 55:06.30 | 3:27.40 | 247980 | 263544 12 | 58:33.70 | 4:20.32 | 263545 | 283076 13 | 62:54.27 | 5:38.39 | 283077 | 308465
Range status and errors
Selected range
Filename D:\MyRip\VV.AA [2009] [CD] Turulheart - A Hungarian Tribute to Bathory (Ltd.Ed-Digipak) [EAC-WV]
by maniac [MeTaLMaDNeSS TeaM]\VA - Turulheart- A Hungarian Tribute to Bathory.wav
Peak level 100.0 % Extraction speed 5.9 X Range quality 100.0 % Test CRC 5487C78C Copy CRC 5487C78C Copy OK
No errors occurred
AccurateRip summary
Track 1 accurately ripped (confidence 1) [F77C6896] (AR v1)Track 2 accurately ripped (confidence 1) [8A63C4D3] (AR v1)Track 3 accurately ripped (confidence 1) [B0E8B836] (AR v1)Track 4 accurately ripped (confidence 1) [DF0011DD] (AR v1)Track 5 accurately ripped (confidence 1) [AB81316D] (AR v1)Track 6 accurately ripped (confidence 1) [63259EE4] (AR v1)Track 7 accurately ripped (confidence 1) [020B52C9] (AR v1)Track 8 accurately ripped (confidence 1) [EAF480D7] (AR v1)Track 9 accurately ripped (confidence 1) [07285EAC] (AR v1)Track 10 accurately ripped (confidence 1) [B991D9E1] (AR v1)Track 11 accurately ripped (confidence 1) [F3969256] (AR v1)Track 12 accurately ripped (confidence 1) [B5A35681] (AR v1)Track 13 accurately ripped (confidence 1) [46C49E47] (AR v1)
All tracks accurately ripped
End of status report
==== Log checksum F8AE89ACB510DBA97BE94DDE37ECCD62C2522C37F7140CBE44981C217314182E ====

2012 - Voices From Valhalla [Godreah Rec., FAFF010, 2CD, UK]

01. Satan My Master (2:20)
02. Die in Fire (3:18)
03. Bestial Lust (2:35)
04. The Return of Darkness and Evil (3:06)
05. Rite of Darkness (2:35)
06. Call From the Grave (4:34)
07. Equimanthorn (5:10)
08. For All Those Who Died (2:59)
09. Dies Irae (5:15)
10. Holocaust (4:11)
11. The Sword (3:57)
12. The Woodwoman (5:45)
13. The Lake (6:39)
14. Valhalla (9:09)
15. Song to Hall Up High (2:45)
01. Through Blood by Thunder (5:20)
02. Under the Runes (4:20)
03. Destroyer of Worlds (4:42)
04. Vinterblot (5:02)
05. Foreverdark Woods (7:03)
06. Flash of the Silverhammer (3:52)
07. Man of Iron (2:32)
08. Interview (1996) (30:37)

Лог создания рипа

Exact Audio Copy V1.0 beta 3 from 29. August 2011
EAC extraction logfile from 27. July 2014, 10:30
Various Artists / Voices From Valhalla: A Tribute to Bathory
Used drive : PIONEER DVD-RW DVR-111D Adapter: 2 ID: 0
Read mode : SecureUtilize accurate stream : YesDefeat audio cache : YesMake use of C2 pointers : No
Read offset correction : 48Overread into Lead-In and Lead-Out : NoFill up missing offset samples with silence : YesDelete leading and trailing silent blocks : NoNull samples used in CRC calculations : YesUsed interface : Installed external ASPI interface
Used output format : User Defined EncoderSelected bitrate : 768 kBit/sQuality : HighAdd ID3 tag : NoCommand line compressor : C:\Program Files (x86)\Exact Audio Copy\FLAC\FLAC.EXEAdditional command line options : -6 -V -T "ARTIST=%artist%" -T "TITLE=%title%" -T "ALBUM=%albumtitle%" -T
"DATE=%year%" -T "TRACKNUMBER=%tracknr%" -T "GENRE=%genre%" -T "COMMENT=%comment%" -T "BAND=%albuminterpret%"
-T "ALBUMARTIST=%albuminterpret%" -T "COMPOSER=%composer%" %haslyrics%--tag-from-file=LYRICS="%lyricsfile
%"%haslyrics% -T "DISCNUMBER=%cdnumber%" -T "TOTALDISCS=%totalcds%" -T "TOTALTRACKS=%numtracks%" %hascover%--
picture="%coverfile%"%hascover% %source% -o %dest%
TOC of the extracted CD
Track | Start | Length | Start sector | End sector --------------------------------------------------------- 1 | 0:00.00 | 2:20.00 | 0 | 10499 2 | 2:20.00 | 3:17.72 | 10500 | 25346 3 | 5:37.72 | 2:34.56 | 25347 | 36952 4 | 8:12.53 | 3:05.60 | 36953 | 50887 5 | 11:18.38 | 2:35.01 | 50888 | 62513 6 | 13:53.39 | 4:33.39 | 62514 | 83027 7 | 18:27.03 | 5:10.17 | 83028 | 106294 8 | 23:37.20 | 2:58.61 | 106295 | 119705 9 | 26:36.06 | 5:14.49 | 119706 | 143304 10 | 31:50.55 | 4:11.18 | 143305 | 162147 11 | 36:01.73 | 3:57.20 | 162148 | 179942 12 | 39:59.18 | 5:45.06 | 179943 | 205823 13 | 45:44.24 | 6:38.73 | 205824 | 235746 14 | 52:23.22 | 9:08.58 | 235747 | 276904 15 | 61:32.05 | 2:45.02 | 276905 | 289281
Range status and errors
Selected range
Filename C:\Users\ZYKLON_B\Desktop\отправить\2012 '' Voices from Valhalla - Tribute to Bathory
''\CD1\Various Artists - Voices From Valhalla- A Tribute to Bathory.wav
Peak level 100.0 % Extraction speed 1.8 X Range quality 99.9 % Test CRC 9CB8670C Copy CRC 9CB8670C Copy OK
No errors occurred
AccurateRip summary
Track 1 accurately ripped (confidence 1) [27620859] (AR v2)Track 2 accurately ripped (confidence 1) [B2A3A527] (AR v2)Track 3 accurately ripped (confidence 1) [4462A387] (AR v2)Track 4 accurately ripped (confidence 1) [0B0DB7B8] (AR v2)Track 5 accurately ripped (confidence 1) [4F4D1817] (AR v2)Track 6 accurately ripped (confidence 1) [89E5A331] (AR v2)Track 7 accurately ripped (confidence 1) [B242CD83] (AR v2)Track 8 accurately ripped (confidence 1) [8BCCFD8B] (AR v2)Track 9 accurately ripped (confidence 1) [A652F2FD] (AR v2)Track 10 accurately ripped (confidence 1) [17CEF38F] (AR v2)Track 11 accurately ripped (confidence 1) [E5B1804D] (AR v2)Track 12 accurately ripped (confidence 1) [C3E378B7] (AR v2)Track 13 accurately ripped (confidence 1) [570B6AD3] (AR v2)Track 14 cannot be verified as accurate (confidence 1) [BF56FB27], AccurateRip returned [F6C25BC0] (AR v2)Track 15 accurately ripped (confidence 1) [0971452A] (AR v2)
14 трек(и) скопированы точно 1 трек(и) не удалось проверить на точность
Some tracks could not be verified as accurate
End of status report
---- CUETools DB Plugin V2.1.5
[CTDB TOCID: SizhRwkcHLj5nP_dGEpyUQ9Sowc-] foundSubmit result: SizhRwkcHLj5nP_dGEpyUQ9Sowc- has been confirmedTrack | CTDB Status 1 | (3/3) Accurately ripped 2 | (3/3) Accurately ripped 3 | (3/3) Accurately ripped 4 | (3/3) Accurately ripped 5 | (3/3) Accurately ripped 6 | (3/3) Accurately ripped 7 | (3/3) Accurately ripped 8 | (3/3) Accurately ripped 9 | (3/3) Accurately ripped 10 | (3/3) Accurately ripped 11 | (3/3) Accurately ripped 12 | (3/3) Accurately ripped 13 | (3/3) Accurately ripped 14 | (3/3) Accurately ripped 15 | (3/3) Accurately ripped
==== Log checksum DC352DCE9A8414BC159D68BD3AAFE331DB3E6F1A3DC693A21212304EF0877E3B ====_________________________________________________________________________________________Exact Audio Copy V1.0 beta 3 from 29. August 2011
EAC extraction logfile from 27. July 2014, 12:09
Various Artists / Voices From Valhalla: A Tribute to Bathory
Used drive : PIONEER DVD-RW DVR-111D Adapter: 2 ID: 0
Read mode : SecureUtilize accurate stream : YesDefeat audio cache : YesMake use of C2 pointers : No
Read offset correction : 48Overread into Lead-In and Lead-Out : NoFill up missing offset samples with silence : YesDelete leading and trailing silent blocks : NoNull samples used in CRC calculations : YesUsed interface : Installed external ASPI interface
Used output format : User Defined EncoderSelected bitrate : 768 kBit/sQuality : HighAdd ID3 tag : NoCommand line compressor : C:\Program Files (x86)\Exact Audio Copy\FLAC\FLAC.EXEAdditional command line options : -6 -V -T "ARTIST=%artist%" -T "TITLE=%title%" -T "ALBUM=%albumtitle%" -T
"DATE=%year%" -T "TRACKNUMBER=%tracknr%" -T "GENRE=%genre%" -T "COMMENT=%comment%" -T "BAND=%albuminterpret%"
-T "ALBUMARTIST=%albuminterpret%" -T "COMPOSER=%composer%" %haslyrics%--tag-from-file=LYRICS="%lyricsfile
%"%haslyrics% -T "DISCNUMBER=%cdnumber%" -T "TOTALDISCS=%totalcds%" -T "TOTALTRACKS=%numtracks%" %hascover%--
picture="%coverfile%"%hascover% %source% -o %dest%
TOC of the extracted CD
Track | Start | Length | Start sector | End sector --------------------------------------------------------- 1 | 0:00.00 | 5:20.36 | 0 | 24035 2 | 5:20.36 | 4:19.74 | 24036 | 43534 3 | 9:40.35 | 4:41.48 | 43535 | 64657 4 | 14:22.08 | 5:01.39 | 64658 | 87271 5 | 19:23.47 | 7:03.12 | 87272 | 119008 6 | 26:26.59 | 3:51.74 | 119009 | 136407 7 | 30:18.58 | 2:31.46 | 136408 | 147778 8 | 32:50.29 | 30:37.18 | 147779 | 285571
Range status and errors
Selected range
Filename C:\Users\ZYKLON_B\Desktop\отправить\2012 '' Voices from Valhalla - Tribute to Bathory
''\CD2\Various Artists - Voices From Valhalla- A Tribute to Bathory.wav
Peak level 100.0 % Extraction speed 1.8 X Range quality 100.0 % Test CRC 050D3CC1 Copy CRC 050D3CC1 Copy OK
No errors occurred
AccurateRip summary
Track 1 accurately ripped (confidence 1) [4D5EC542] (AR v2)Track 2 accurately ripped (confidence 1) [05DC56C7] (AR v2)Track 3 accurately ripped (confidence 1) [414C0E71] (AR v2)Track 4 accurately ripped (confidence 1) [DEAD198F] (AR v2)Track 5 accurately ripped (confidence 1) [91A40039] (AR v2)Track 6 accurately ripped (confidence 1) [E1043032] (AR v2)Track 7 accurately ripped (confidence 1) [61105780] (AR v2)Track 8 accurately ripped (confidence 1) [519BC217] (AR v2)
All tracks accurately ripped
End of status report
---- CUETools DB Plugin V2.1.5
[CTDB TOCID: 9JOzRrU8mYdyp8tvCYEGqmTvgEk-] foundSubmit result: 9JOzRrU8mYdyp8tvCYEGqmTvgEk- has been confirmedTrack | CTDB Status 1 | (3/3) Accurately ripped 2 | (3/3) Accurately ripped 3 | (3/3) Accurately ripped 4 | (3/3) Accurately ripped 5 | (3/3) Accurately ripped 6 | (3/3) Accurately ripped 7 | (3/3) Accurately ripped 8 | (3/3) Accurately ripped
==== Log checksum 4F5659973223FF4E65E7C2B173067D70B9C6A7E44D73A57E2658DC224A20C1CC ====

СПАСИБО

1997 - Hellas Salutes The Vikings [Metal Invader, MICD0001, Italy] vondur-live-1945 (MMT)
1998 - In Conspiracy With Satan [Fono, FO95CD, Russia] [url=profile.php?mode=viewprofile&u=17212946]7083547[/url] (разрешение получено)
2009 - A Hungarian~Turulheart [Hungaryan Rec., HUNCD 005, Hungary] maniac (MMT)
2012 - Voices From Valhalla [Godreah Rec., FAFF010, 2CD, UK] kabanych


[torrentc.info]_t_5402058.torrent
Торрент: Зарегистрирован ·  [ 2017-05-21 00:24 ] ·  6b9840d564137d228d3f63316731d41892c6793f

18 KB

Статус: проверено
Скачан: 0 раз
Размер: 2.15 GB
Оценка: 
(Голосов: 0)
Сказали спасибо: 0  Спасибо
Похожие темы
[Профиль]    [ЛС]
Показать сообщения:    
Ответить на тему

Текущее время: Сегодня 07:38

Часовой пояс: GMT + 7



Вы не можете начинать темы
Вы не можете отвечать на сообщения
Вы не можете редактировать свои сообщения
Вы не можете удалять свои сообщения
Вы не можете голосовать в опросах
Вы не можете прикреплять файлы к сообщениям
Вы можете скачивать файлы