Мой милый (Болат Калымбетов) [1990, социальная драма, WEB-DLRip] VO

Ответить на тему
Статистика раздачи [Обновить пиров]
Размер:  1.09 GB   |    Зарегистрирован:  1 год 9 месяцев   |    Скачан:  0 раз

Полного источника не было: Никогда

 
   
 
 
 
Автор Сообщение

torrentc.info

Создавать темы 14-Фев-2017 20:25

[Цитировать]

Мой милый / Айналайын Год выхода: 1990.
Жанр: социальная драма.
Продолжительность: 01:04:10.
Перевод: одноголосый закадровый.
Режиссер: Болат Калымбетов.
В ролях:
Сана Жетписбаева, Фархад Сайфуллин, Ерболат Оспанкулов, Алтынбек Кенжеков, Касым Жакибаев.
Описание:
Жесткое, местами пронзительно лирическое повествование о повседневной и порой безысходной жизни в казахской провинциальной глубинке.
Через судьбы двух юных влюбленных подростков прослеживается социальная драма поколения. Разрушительные последствия взрывов на атомном, теперь уже опустевшем, полигоне не проходят бесследно для становления и формирования характера юного героя и его поколения.
Дебют режиссера Болата Калымбетова.

Доп. информация:
Страна: СССР .
Киностудия: Мирас (Казахфильм).
Автор сценария: Маргарита Соловьева.
Оператор: Алишер Сулейменов.
Композитор: Талгат Тайшанов.
Художник: Марат Сарсенбаев.
Награды и номинации:
• Премия ЦК ЛКСМ "Дарын" автору сценария Алишеру Сулейменову в Алматы в 1993 году.

Релиз группы:
Рип sharky.

Качество: WEB-DLRip
Формат файла: AVI
Видео: 704x528 (1.33:1), 25 fps, DivX Codec 4.x ~2296 kbps avg, 0.25 bit/pixel
Аудио: 44.100 kHz, MPEG Layer 3, 2 ch, ~128.00 kbps avg

Отчет MI

General
Complete name : Moj.milyj.1990.DivX.WEB-DLRip.fenixclub.avi
Format : AVI
Format/Info : Audio Video Interleave
File size : 1.09 GiB
Duration : 1h 4mn
Overall bit rate : 2 434 Kbps
Video
ID : 0
Format : MPEG-4 Visual
Format settings, BVOP : 1
Format settings, QPel : No
Format settings, GMC : No warppoints
Format settings, Matrix : Default (H.263)
Codec ID : DX50
Codec ID/Hint : DivX 5
Duration : 1h 4mn
Bit rate : 2 296 Kbps
Width : 704 pixels
Height : 528 pixels
Display aspect ratio : 4:3
Frame rate : 25.000 fps
Color space : YUV
Chroma subsampling : 4:2:0
Bit depth : 8 bits
Scan type : Progressive
Compression mode : Lossy
Bits/(Pixel*Frame) : 0.247
Stream size : 1.03 GiB (94%)
Title : Video
Writing library : DivX 3013
Audio
ID : 1
Format : MPEG Audio
Format version : Version 1
Format profile : Layer 3
Codec ID : 55
Codec ID/Hint : MP3
Duration : 1h 4mn
Bit rate mode : Constant
Bit rate : 128 Kbps
Channel(s) : 2 channels
Sampling rate : 44.1 KHz
Compression mode : Lossy
Stream size : 58.7 MiB (5%)
Alignment : Split accross interleaves
Interleave, duration : 40 ms (1.00 video frame)
Interleave, preload duratio : 500 ms
Title : Audio

Скриншоты


Альтернативный хост




[torrentc.info]_torrent-5346265.torrent
Торрент: Зарегистрирован ·  [ 2017-02-14 20:24 ] ·  c989890d1474e91c0c3ba74c9f1ea263f3b0ba61

11 KB

Статус: проверено
Скачан: 0 раз
Размер: 1.09 GB
Оценка: 
(Голосов: 0)
Сказали спасибо: 0  Спасибо
Похожие темы
[Профиль]    [ЛС]
Показать сообщения:    
Ответить на тему

Текущее время: Сегодня 07:02

Часовой пояс: GMT + 7



Вы не можете начинать темы
Вы не можете отвечать на сообщения
Вы не можете редактировать свои сообщения
Вы не можете удалять свои сообщения
Вы не можете голосовать в опросах
Вы не можете прикреплять файлы к сообщениям
Вы можете скачивать файлы