Грибной дождь (Николай Кошелев) [1981, Драма, TVRip]

Ответить на тему
Статистика раздачи [Обновить пиров]
Размер:  1.09 GB   |    Зарегистрирован:  1 год 5 месяцев   |    Скачан:  0 раз

Полного источника не было: Никогда

 
   
 
 
 
Автор Сообщение

torrentc.info

Создавать темы 14-Фев-2017 20:25

[Цитировать]

Грибной дождь Год выхода: 1981.
Жанр: драма.
Продолжительность: 01:13:15.
Режиссеры: Николай Кошелев.
В ролях:
Владимир Заманский, Татьяна Кравченко, Екатерина Васильева, Эрнст Романов, Римма Быкова, Владимир Гостюхин, Борис Иванов, Елена Драпеко, Георгий Дрозд, Александр Потапов, Олег Корчиков, Алексей Жарков, Любовь Малиновская, Алексей Ванин, Соня Джишкариани.
Описание:
Сотрудники типографии отправились всем коллективом за грибами. Собравшись в обратный путь, они заметили, что нет одной женщины. Коллеги с легкостью поверили, что она уехала раньше на попутной машине, и сами поехали домой. На самом деле женщина осталась в лесу...
Доп. информация:
Страна: СССР .
Киностудия: Ленфильм.
Автор сценария: Анатолий Соснин.
Оператор: Алексей Гамбарян.
Композитор: Игорь Цветков.
Художник: Георгий Кропачёв.
Премьера: сентябрь 1982 года.
[img]https://rating.kinopoisk.ru/44607.gif[/img]

Релиз группы:
Рип sharky.
Качество: TVRip
Формат файла: AVI
Видео: 704x528 (1.33:1), 25 fps, DivX Codec 4.x ~1995 kbps avg, 0.21 bit/pixel
Аудио: 48 kHz, MPEG Layer 3, 2 ch, ~128.00 kbps avg

Отчет MI

General
Complete name : Gribnoj.dozhd'.1981.DivX.TVRip.fenixclub.avi
Format : AVI
Format/Info : Audio Video Interleave
File size : 1.09 GiB
Duration : 1h 13mn
Overall bit rate : 2 133 Kbps
Video
ID : 0
Format : MPEG-4 Visual
Format settings, BVOP : 1
Format settings, QPel : No
Format settings, GMC : No warppoints
Format settings, Matrix : Default (H.263)
Codec ID : DX50
Codec ID/Hint : DivX 5
Duration : 1h 13mn
Bit rate : 1 995 Kbps
Width : 704 pixels
Height : 528 pixels
Display aspect ratio : 4:3
Frame rate : 25.000 fps
Color space : YUV
Chroma subsampling : 4:2:0
Bit depth : 8 bits
Scan type : Progressive
Compression mode : Lossy
Bits/(Pixel*Frame) : 0.215
Stream size : 1.02 GiB (94%)
Title : Video
Writing library : DivX 3013
Audio
ID : 1
Format : MPEG Audio
Format version : Version 1
Format profile : Layer 3
Codec ID : 55
Codec ID/Hint : MP3
Duration : 1h 13mn
Bit rate mode : Constant
Bit rate : 128 Kbps
Channel(s) : 2 channels
Sampling rate : 48.0 KHz
Compression mode : Lossy
Stream size : 67.1 MiB (6%)
Alignment : Split accross interleaves
Interleave, duration : 40 ms (1.00 video frame)
Interleave, preload duratio : 500 ms
Title : Audio

Скриншоты


Альтернативный хост




[torrentc.info]_torrent-5346297.torrent
Торрент: Зарегистрирован ·  [ 2017-02-14 20:24 ] ·  d81978a6924f36ed6fd4873a9ef76da7db2ed51a

11 KB

Статус: проверено
Скачан: 0 раз
Размер: 1.09 GB
Оценка: 
(Голосов: 0)
Сказали спасибо: 0  Спасибо
Похожие темы
[Профиль]    [ЛС]
Показать сообщения:    
Ответить на тему

Текущее время: Сегодня 12:11

Часовой пояс: GMT + 7



Вы не можете начинать темы
Вы не можете отвечать на сообщения
Вы не можете редактировать свои сообщения
Вы не можете удалять свои сообщения
Вы не можете голосовать в опросах
Вы не можете прикреплять файлы к сообщениям
Вы можете скачивать файлы