Посеяли девушки лен (Владимир Корш-Саблин) [1956, драма, мелодрама, DVDRip]

Ответить на тему
Статистика раздачи [Обновить пиров]
Размер:  745 MB   |    Зарегистрирован:  1 год 7 месяцев   |    Скачан:  0 раз

Полного источника не было: Никогда

 
   
 
 
 
Автор Сообщение

torrentc.info

Создавать темы 14-Фев-2017 20:25

[Цитировать]

Посеяли девушки лен
Жанр: драма, мелодрама
Год выхода: 1956
Продолжительность: 01:25:53
Режиссёр: Владимир Корш-Саблин
В ролях: Зоя Степанова, Елена Тяпкина, Лев Фричинский, Борис Кордунов, Лариса Кронберг, Тамара Трушина, Глеб Глебов, Людмила Семёнова, Нина Алисова, Александр Ильинский, Павел Пекур, А. Лихачев, Георгий Гумилевский, Валентина Кравченко...
Описание: Сюжет из колхозной жизни. Звеньевая белорусского колхоза Найдейка Красович, воодушевленная наградой на Всесоюзной сельскохозяйственной выставке за высокий урожай льна, дает слово вдвое увеличить урожай. Многие односельчане сомневаются в ее успехе, и лишь Григорий Павлович, новый директор МТС, оставивший в городе семью и приехавший в село по зову партии, оказывает Надейке всяческую поддержку и чрезмерное внимание, потому что любит и, кажется, любим. Параллельно этой истории развивается сюжет о любви трактористки Зоси к леснику Янке, который безответно страдает по Надейке.
Автор рипа: AVPStudio
Сэмпл: http://multi-up.com/1137165
Качество видео: DVDRip
Формат файла: AVI
Видео: 640x480 (4:3), 25 fps, XviD ~ 1076 kbps avg, 0.140 bit/pixel
Аудио: 48 kHz, MP3 2.0, 128 kbps

MediaInfo

General
Complete name : D:\Видео\Кино\Посеяли девушки лен.DVDRip.avi
Format : AVI
Format/Info : Audio Video Interleave
File size : 745 MiB
Duration : 1h 25mn
Overall bit rate : 1 214 Kbps
Writing application : VirtualDubMod 1.5.10.3 | www.virtualdub-fr.org || (build 2550/release)
Writing library : VirtualDubMod build 2550/release
Video
ID : 0
Format : MPEG-4 Visual
Format profile : Advanced Simple@L5
Format settings, BVOP : 1
Format settings, QPel : No
Format settings, GMC : No warppoints
Format settings, Matrix : Custom
Codec ID : XVID
Codec ID/Hint : XviD
Duration : 1h 25mn
Bit rate : 1 076 Kbps
Width : 640 pixels
Height : 480 pixels
Display aspect ratio : 4:3
Frame rate : 25.000 fps
Color space : YUV
Chroma subsampling : 4:2:0
Bit depth : 8 bits
Scan type : Progressive
Compression mode : Lossy
Bits/(Pixel*Frame) : 0.140
Stream size : 661 MiB (89%)
Writing library : XviD 73
Audio
ID : 1
Format : MPEG Audio
Format version : Version 1
Format profile : Layer 3
Codec ID : 55
Codec ID/Hint : MP3
Duration : 1h 25mn
Bit rate mode : Constant
Bit rate : 128 Kbps
Channel(s) : 2 channels
Sampling rate : 48.0 KHz
Compression mode : Lossy
Stream size : 78.6 MiB (11%)
Alignment : Aligned on interleaves
Interleave, duration : 40 ms (1.00 video frame)
Interleave, preload duration : 504 ms
Writing library : LAME3.99r
Encoding settings : -m s -V 4 -q 2 -lowpass 17 -b 128

Скриншоты







[torrentc.info]_torrent-5346423.torrent
Торрент: Зарегистрирован ·  [ 2017-02-14 20:24 ] ·  60e3465d19f6e2671fcc8bc974ddf9b842461861

15 KB

Статус: проверено
Скачан: 0 раз
Размер: 745 MB
Оценка: 
(Голосов: 0)
Сказали спасибо: 0  Спасибо
Похожие темы
[Профиль]    [ЛС]
Показать сообщения:    
Ответить на тему

Текущее время: Сегодня 13:04

Часовой пояс: GMT + 7



Вы не можете начинать темы
Вы не можете отвечать на сообщения
Вы не можете редактировать свои сообщения
Вы не можете удалять свои сообщения
Вы не можете голосовать в опросах
Вы не можете прикреплять файлы к сообщениям
Вы можете скачивать файлы