Какая у вас улыбка (Олег Николаевский) [1974, лирическая комедия, DVDRip-AVC]

Ответить на тему
Статистика раздачи [Обновить пиров]
Размер:  1.45 GB   |    Зарегистрирован:  1 год 7 месяцев   |    Скачан:  1 раз

Полного источника не было: 2 месяца

 
   
 
 
 
Автор Сообщение

torrentc.info

Создавать темы 14-Фев-2017 20:25

[Цитировать]

Какая у вас улыбка- Жанр: лирическая комедия
Год выхода: 1974
Продолжительность: 01:25:08-Режиссёр: Олег Николаевский-В ролях:
Алексей Мокроусов, Александр Ширвиндт, Эве Киви, Валентина Сперантова, Юрий Пузырев, Игорь Филатов, Расми Джабраилов, Мария Миронова, Наталия Богунова, Александр Мовчан, Михаил Майоров, Татьяна Доронина
Описание:
Вчерашний школьник, заваливший вступительные экзамены, пытается найти работу по душе. Но он не умеет просиживать штаны за нелюбимым занятием и нигде надолго не задерживается. К счастью, герой картины вовремя осознает, что его детское увлечение может стать тем самым, нужным ему и окружающим, делом.-[url=viewtopic.php?t=3142108]Источник: Torrentc.org[/url] | Сэмпл | Кинопоиск-Качество видео: DVDRip-AVC, благодарю dmitriy0374 за Источник: Torrentc.org.
Формат файла: MKV
Видео: x264: (High@L4.1); 696@759x420, Display aspect ratio 1.807:1, 25.000 fps, 2249 Kbps
Аудио: Оригинал: AC-3; 16 bit 48 Khz; 2.0ch 192 Kbps; CBR

MediaInfo

avs [info]: 696x420p 12:11 @ 25/1 fps (cfr)
x264 [info]: using SAR=12/11
x264 [info]: profile High, level 4.1
x264 [info]: frame I:772 Avg QP:16.42 size: 54969
x264 [info]: frame P:25976 Avg QP:18.22 size: 26488
x264 [info]: frame B:100973 Avg QP:19.82 size: 6986
x264 [info]: consecutive B-frames: 1.2% 1.1% 5.1% 16.8% 25.4% 43.7% 5.6% 1.0% 0.1%
x264 [info]: ref P L0: 39.1% 12.9% 11.0% 7.3% 5.6% 5.2% 3.5% 2.4% 2.1% 2.1% 1.7% 1.7% 1.5% 1.5% 1.3% 1.1%
x264 [info]: ref B L0: 83.5% 5.7% 2.3% 1.9% 1.3% 1.2% 0.8% 0.6% 0.5% 0.5% 0.4% 0.4% 0.4% 0.3% 0.2%
x264 [info]: ref B L1: 98.8% 1.2%
x264 [info]: kb/s:2248.47--General
Unique ID : 171620051109523383905835978794048710181 (0x811CD1CDF5157834B0153F64F7EC6625)
Complete name : Какая у вас улыбка.1974.mkv
Format : Matroska
Format version : Version 2
File size : 1.45 GiB
Duration : 1h 25mn
Overall bit rate : 2 442 Kbps
Movie name : «Какая у вас улыбка»
Encoded date : UTC 2017-01-23 10:28:57
Writing application : mkvmerge v7.8.0 ('River Man') 32bit built on Mar 27 2015 16:18:02
Writing library : libebml v1.3.1 + libmatroska v1.4.2
Comment : DVDRip-AVC
Originally released : January 23rd 2017
Encoded by : george$t®
Video
ID : 1
Format : AVC
Format/Info : Advanced Video Codec
Format profile : High@L4.1
Format settings, CABAC : Yes
Format settings, ReFrames : 16 frames
Codec ID : V_MPEG4/ISO/AVC
Duration : 1h 25mn
Bit rate : 2 249 Kbps
Width : 696 pixels
Height : 420 pixels
Display aspect ratio : 16:9
Original display aspect rat : 16:9
Frame rate mode : Constant
Frame rate : 25.000 fps
Color space : YUV
Chroma subsampling : 4:2:0
Bit depth : 8 bits
Scan type : Progressive
Bits/(Pixel*Frame) : 0.308
Stream size : 1.31 GiB (90%)
Title : Какая у вас улыбка.1974
Writing library : x264 core 148 r2721kMod 72d53ab
Encoding settings : cabac=1 / ref=16 / deblock=1:-2:-2 / analyse=0x3:0x133 / me=umh / subme=10 / psy=1 / fade_compensate=0.00 / psy_rd=1.00:0.00 / mixed_ref=1 / me_range=32 / chroma_me=1 / trellis=2 / 8x8dct=1 / cqm=0 / deadzone=21,11 / fast_pskip=0 / chroma_qp_offset=-2 / threads=12 / lookahead_threads=2 / sliced_threads=0 / nr=0 / decimate=0 / interlaced=0 / bluray_compat=0 / constrained_intra=0 / fgo=0 / bframes=8 / b_pyramid=2 / b_adapt=2 / b_bias=0 / direct=3 / weightb=1 / open_gop=0 / weightp=2 / keyint=250 / keyint_min=25 / scenecut=40 / intra_refresh=0 / rc_lookahead=60 / rc=2pass / mbtree=0 / bitrate=2249 / ratetol=1.0 / qcomp=0.60 / qpmin=0 / qpmax=69 / qpstep=4 / cplxblur=20.0 / qblur=0.5 / vbv_maxrate=62500 / vbv_bufsize=78125 / nal_hrd=none / filler=0 / ip_ratio=1.40 / pb_ratio=1.30 / aq=3:0.90
Language : Russian
Default : Yes
Forced : No
Color primaries : BT.601 PAL
Transfer characteristics : BT.470 System B, BT.470 System G
Matrix coefficients : BT.601
Color range : Limited
Audio
ID : 2
Format : AC-3
Format/Info : Audio Coding 3
Mode extension : CM (complete main)
Format settings, Endianness : Big
Codec ID : A_AC3
Duration : 1h 25mn
Bit rate mode : Constant
Bit rate : 192 Kbps
Channel(s) : 2 channels
Channel positions : Front: L R
Sampling rate : 48.0 KHz
Bit depth : 16 bits
Compression mode : Lossy
Stream size : 117 MiB (8%)
Title : Оригинал: AC-3; 16 bit 48 Khz; 2.0ch 192 Kbps; CBR
Language : Russian
Default : Yes
Forced : No

Скриншоты

vs. DVDRip
[url=viewtopic.php?t=934911]http://Torrentc.org/forum/viewtopic.php?t=934911[/url]


[torrentc.info]_torrent-5346464.torrent
Торрент: Зарегистрирован ·  [ 2017-02-14 20:24 ] ·  b8efec8f8cf798c7d003d8923e54478a0a66351c

15 KB

Статус: проверено
Скачан: 1 раз
Размер: 1.45 GB
Оценка: 
(Голосов: 0)
Сказали спасибо: 1  Спасибо   (список)
Похожие темы
[Профиль]    [ЛС]
Показать сообщения:    
Ответить на тему

Текущее время: Сегодня 13:34

Часовой пояс: GMT + 7



Вы не можете начинать темы
Вы не можете отвечать на сообщения
Вы не можете редактировать свои сообщения
Вы не можете удалять свои сообщения
Вы не можете голосовать в опросах
Вы не можете прикреплять файлы к сообщениям
Вы можете скачивать файлы