На подмостках сцены (Константин Юдин) [1956, драма, комедия, SATRip]

Ответить на тему
Статистика раздачи [Обновить пиров]
Размер:  745 MB   |    Зарегистрирован:  1 год 9 месяцев   |    Скачан:  0 раз

Полного источника не было: Никогда

 
   
 
 
 
Автор Сообщение

torrentc.info

Создавать темы 14-Фев-2017 20:25

[Цитировать]

На подмостках сцены
Жанр: драма, комедия
Год выхода: 1956
Продолжительность: 01:22:52
Режиссёр: Константин Юдин
В ролях: Василий Меркурьев, Лилия Юдина, Татьяна Карпова, Николай Афанасьев, Михаил Яншин, Юрий Любимов, Сергей Блинников, Станислав Чекан, Александр Сашин-Никольский...
Описание: Экранизация водевиля Д. Ленского "Лев Гурыч Синичкин".
Середина XIX века. Состарившийся драматический актер Лев Синичкин, поездив немало по стране, останавливается в одном из провинциальных городков с целью пристроить в театр дочь. Пойдя на ряд хитростей ради талантливой дочери, Синичкин сумел включить ее в состав спектакля - и юная дебютантка добивается большого успеха.
Автор рипа: AVPStudio
Сэмпл: http://multi-up.com/1137732
Качество видео: SATRip
Формат файла: AVI
Видео: 640x480 (4:3), 25 fps, XviD ~ 1119 kbps avg, 0.146 bit/pixel
Аудио: 48 kHz, MP3 2.0, 128 kbps

MediaInfo

General
Complete name : D:\Видео\Кино 2\На подмостках сцены.SATRip.avi
Format : AVI
Format/Info : Audio Video Interleave
File size : 745 MiB
Duration : 1h 22mn
Overall bit rate : 1 257 Kbps
Writing application : VirtualDubMod 1.5.10.3 | www.virtualdub-fr.org || (build 2550/release)
Writing library : VirtualDubMod build 2550/release
Video
ID : 0
Format : MPEG-4 Visual
Format profile : Advanced Simple@L5
Format settings, BVOP : 1
Format settings, QPel : No
Format settings, GMC : No warppoints
Format settings, Matrix : Custom
Codec ID : XVID
Codec ID/Hint : XviD
Duration : 1h 22mn
Bit rate : 1 119 Kbps
Width : 640 pixels
Height : 480 pixels
Display aspect ratio : 4:3
Frame rate : 25.000 fps
Color space : YUV
Chroma subsampling : 4:2:0
Bit depth : 8 bits
Scan type : Progressive
Compression mode : Lossy
Bits/(Pixel*Frame) : 0.146
Stream size : 663 MiB (89%)
Writing library : XviD 73
Audio
ID : 1
Format : MPEG Audio
Format version : Version 1
Format profile : Layer 3
Codec ID : 55
Codec ID/Hint : MP3
Duration : 1h 22mn
Bit rate mode : Constant
Bit rate : 128 Kbps
Channel(s) : 2 channels
Sampling rate : 48.0 KHz
Compression mode : Lossy
Stream size : 75.9 MiB (10%)
Alignment : Aligned on interleaves
Interleave, duration : 40 ms (1.00 video frame)
Interleave, preload duration : 504 ms
Writing library : LAME3.99r
Encoding settings : -m s -V 4 -q 2 -lowpass 17 -b 128

Скриншоты







[torrentc.info]_torrent-5348409.torrent
Торрент: Зарегистрирован ·  [ 2017-02-14 20:24 ] ·  96beb7127852c7c4fa4673f7a29651bf38494be2

15 KB

Статус: проверено
Скачан: 0 раз
Размер: 745 MB
Оценка: 
(Голосов: 0)
Сказали спасибо: 0  Спасибо
Похожие темы
[Профиль]    [ЛС]
Показать сообщения:    
Ответить на тему

Текущее время: Сегодня 22:55

Часовой пояс: GMT + 7



Вы не можете начинать темы
Вы не можете отвечать на сообщения
Вы не можете редактировать свои сообщения
Вы не можете удалять свои сообщения
Вы не можете голосовать в опросах
Вы не можете прикреплять файлы к сообщениям
Вы можете скачивать файлы