Урок истории (Лев Арнштам, Христо Писков, Михаил Ромм) [1956, СССР, Болгария, Драма, VHSRip]

Ответить на тему
Статистика раздачи [Обновить пиров]
Размер:  745 MB   |    Зарегистрирован:  1 год 5 месяцев   |    Скачан:  0 раз

Полного источника не было: Никогда

 
   
 
 
 
Автор Сообщение

torrentc.info

Создавать темы 14-Фев-2017 20:25

[Цитировать]

Урок истории
Жанр: Драма
Год выхода: 1956
Продолжительность: 01:25:01
Режиссёр: Лев Арнштам, Христо Писков, Михаил Ромм
В ролях: Стефан Савов, Цветана Арнаудова, Иван Тонев, Геннадий Юдин, Велта Лине, Борис Бурляев, Аполлон Ячницкий, Юрий Аверин, Э. Багаров, Петр Березов, Николай Волков (старший), Георгий Калоянчев, Янис Осис, Иван Соловьёв, Евгений Кузнецов, Андрей Файт, В. Яковлев, Константин Нассонов...
Описание: 1933 год. Георгий Димитров приезжает в Берлин, чтобы установить связи с находящимися здесь болгарскими коммунистами. Фашистские главари прилагают все усилия, чтобы сломить сопротивление коммунистов. Геринг замышляет провокацию: во время поджога рейхстага его человека должны поймать с билетом члена компартии. Рейхстаг в огне, провокатор Ван дер Люббе и депутат рейхстага Торглер арестованы. Начинаются массовые репрессии против коммунистов. В руки фашистского суда попадает и Димитров. Однако в зале суда рабочие, в числе которых Генрих Ланге, доказывают беспочвенность обвинительного процесса. Фашисты вынуждены оправдать Димитрова. Советское правительство предоставляет ему право политического убежища.
Автор рипа: AVPStudio
Сэмпл: http://multi-up.com/1137869
Качество видео: VHSRip
Формат файла: AVI
Видео: 640x480 (4:3), 25 fps, XviD ~ 1088 kbps avg, 0.142 bit/pixel
Аудио: 48 kHz, MP3 2.0, 128 kbps

MediaInfo

General
Complete name : D:\Видео\Кино 2\Прочее\Урок истории.VHSRip.avi
Format : AVI
Format/Info : Audio Video Interleave
File size : 745 MiB
Duration : 1h 25mn
Overall bit rate : 1 225 Kbps
Writing application : VirtualDubMod 1.5.10.3 | www.virtualdub-fr.org || (build 2550/release)
Writing library : VirtualDubMod build 2550/release
Video
ID : 0
Format : MPEG-4 Visual
Format profile : Advanced Simple@L5
Format settings, BVOP : 1
Format settings, QPel : No
Format settings, GMC : No warppoints
Format settings, Matrix : Custom
Codec ID : XVID
Codec ID/Hint : XviD
Duration : 1h 25mn
Bit rate : 1 088 Kbps
Width : 640 pixels
Height : 480 pixels
Display aspect ratio : 4:3
Frame rate : 25.000 fps
Color space : YUV
Chroma subsampling : 4:2:0
Bit depth : 8 bits
Scan type : Progressive
Compression mode : Lossy
Bits/(Pixel*Frame) : 0.142
Stream size : 661 MiB (89%)
Writing library : XviD 73
Audio
ID : 1
Format : MPEG Audio
Format version : Version 1
Format profile : Layer 3
Codec ID : 55
Codec ID/Hint : MP3
Duration : 1h 25mn
Bit rate mode : Constant
Bit rate : 128 Kbps
Channel(s) : 2 channels
Sampling rate : 48.0 KHz
Compression mode : Lossy
Stream size : 77.8 MiB (10%)
Alignment : Aligned on interleaves
Interleave, duration : 40 ms (1.00 video frame)
Interleave, preload duration : 504 ms
Writing library : LAME3.99r
Encoding settings : -m s -V 4 -q 2 -lowpass 17 -b 128

Скриншоты







[torrentc.info]_torrent-5348876.torrent
Торрент: Зарегистрирован ·  [ 2017-02-14 20:24 ] ·  d796cdf25c15dbba94a0bc294d62f35cc494a4cf

15 KB

Статус: проверено
Скачан: 0 раз
Размер: 745 MB
Оценка: 
(Голосов: 0)
Сказали спасибо: 0  Спасибо
Похожие темы
[Профиль]    [ЛС]
Показать сообщения:    
Ответить на тему

Текущее время: Сегодня 12:14

Часовой пояс: GMT + 7



Вы не можете начинать темы
Вы не можете отвечать на сообщения
Вы не можете редактировать свои сообщения
Вы не можете удалять свои сообщения
Вы не можете голосовать в опросах
Вы не можете прикреплять файлы к сообщениям
Вы можете скачивать файлы