(Metal) [CD] VA - Immortal Dansing Hits - 1997, APE (image+.cue), lossless

Ответить на тему
Статистика раздачи [Обновить пиров]
Размер:  463 MB   |    Зарегистрирован:  1 год 5 месяцев   |    Скачан:  0 раз

Полного источника не было: Никогда

 
   
 
 
 
Автор Сообщение

torrentc.info

Создавать темы 05-Май-2017 12:27

[Цитировать]

Immortal Dansing Hits Golden Ballads & Instrumental
Жанр: Metal
Носитель: CD
Страна-производитель диска (релиза): Russia
Год издания: 1997
Издатель (лейбл): Soyuz
Номер по каталогу: SZCD 0727-97
Аудиокодек: APE (*.ape)
Тип рипа: image+.cue
Битрейт аудио: lossless
Продолжительность: 73:48
Источник (релизер): Собственный рип
Наличие сканов в содержимом раздачи: да
Треклист:
1. Goresleeps - Intro (1:21)
2. Angels Demons - My heart is in the grave (5:50)
3. End Zone - The castle of woman of mine (3:20)
4. In Folio - After the battle (4:24)
5. Siege Mind - From Ancient the ages (1:23)
6. Great Sorrow - The wanderer (4:10)
7. Succubus - Winter saga (2:37)
8. Adolf Castle - Heart of the spring (5:14)
9. Melissa - Suicide (2:30)
10. Mental Home - The euphoria (7:49)
11. Nokturnal Mortum - Barbarian Dreams (3:14)
12. Epilehsy Bout - Flesh without bone (5:37)
13. In Folio - I know (4:07)
14. Skytrone - Desolation (4:17)
15. Siege Mind - Sanctuary (1:03)
16. Gods Tower - Mysterious (4:56)
17. Succubus - Epitaph (2:44)
18. Goresleeps - Nameless City (7:35)
19. Mental Home - Outro (1:20)

Лог создания рипа

Exact Audio Copy V1.3 from 2. September 2016
Отчёт EAC об извлечении, выполненном 2. мая 2017, 22:24
Immortal Dansing Hits / Immortal Dansing Hits - Golden Ballads & Instrumentals
Дисковод: ATAPI iHAS324 Y Adapter: 5 ID: 0
Режим чтения : ДостоверностьИспользование точного потока : ДаОтключение кэша аудио : ДаИспользование указателей C2 : Нет
Коррекция смещения при чтении : 48Способность читать области Lead-in и Lead-out : НетЗаполнение пропущенных сэмплов тишиной : ДаУдаление блоков с тишиной в начале и конце : НетПри вычислениях CRC использовались нулевые сэмплы : ДаИнтерфейс : Установленный внешний ASPI-интерфейс
Выходной формат : Пользовательский кодировщикВыбранный битрейт : 128 kBit/sКачество : ВысокийДобавление ID3-тега : НетУтилита сжатия : C:\Program Files (x86)\Monkey's Audio\MAC.exeДополнительные параметры : %source% %dest% -c3000
TOC извлечённого CD
Трек | Старт | Длительность | Начальный сектор | Конечный сектор --------------------------------------------------------------------- 1 | 0:00.10 | 1:21.65 | 10 | 6149 2 | 1:22.00 | 5:50.50 | 6150 | 32449 3 | 7:12.50 | 3:20.70 | 32450 | 47519 4 | 10:33.45 | 4:24.72 | 47520 | 67391 5 | 14:58.42 | 1:23.25 | 67392 | 73641 6 | 16:21.67 | 4:10.58 | 73642 | 92449 7 | 20:32.50 | 2:38.07 | 92450 | 104306 8 | 23:10.57 | 5:14.48 | 104307 | 127904 9 | 28:25.30 | 2:30.17 | 127905 | 139171 10 | 30:55.47 | 7:49.58 | 139172 | 174404 11 | 38:45.30 | 3:14.15 | 174405 | 188969 12 | 41:59.45 | 5:38.07 | 188970 | 214326 13 | 47:37.52 | 4:08.03 | 214327 | 232929 14 | 51:45.55 | 4:17.72 | 232930 | 252276 15 | 56:03.52 | 1:03.58 | 252277 | 257059 16 | 57:07.35 | 4:57.10 | 257060 | 279344 17 | 62:04.45 | 2:44.70 | 279345 | 291714 18 | 64:49.40 | 7:36.05 | 291715 | 325919 19 | 72:25.45 | 1:21.02 | 325920 | 331996
Характеристики диапазона извлечения и сообщения об ошибках
Выбранный диапазон
Имя файла D:\Immortal Dansing Hits - Golden Ballads & Instrumentals.wav
Пиковый уровень 96.6 % Скорость извлечения 4.2 X Качество диапазона 99.9 % CRC теста 878C81C6 CRC копии 878C81C6 Копирование... OK
Ошибок не произошло
AccurateRip: сводка
Трек 1 отсутствует в базе данныхТрек 2 отсутствует в базе данныхТрек 3 отсутствует в базе данныхТрек 4 отсутствует в базе данныхТрек 5 отсутствует в базе данныхТрек 6 отсутствует в базе данныхТрек 7 отсутствует в базе данныхТрек 8 отсутствует в базе данныхТрек 9 отсутствует в базе данныхТрек 10 отсутствует в базе данныхТрек 11 отсутствует в базе данныхТрек 12 отсутствует в базе данныхТрек 13 отсутствует в базе данныхТрек 14 отсутствует в базе данныхТрек 15 отсутствует в базе данныхТрек 16 отсутствует в базе данныхТрек 17 отсутствует в базе данныхТрек 18 отсутствует в базе данныхТрек 19 отсутствует в базе данных
Ни одного трека нет в базе AccurateRip
Конец отчёта
==== Контрольная сумма отчёта 27F8A939F1D739CD58035C14A859A3B1E4109CA1FA5AEE0D1B545B4F6E721473 ====

Содержание индексной карты (.CUE)

REM GENRE BalladREM DATE 1997REM DISCID 19114A13REM COMMENT "ExactAudioCopy v1.3"PERFORMER "Immortal Dansing Hits"TITLE "Immortal Dansing Hits - Golden Ballads & Instrumentals"REM COMPOSER ""FILE "Immortal Dansing Hits - Golden Ballads & Instrumentals.ape" WAVE TRACK 01 AUDIO TITLE "Goresleeps - Intro" PERFORMER "Immortal Dansing Hits" REM COMPOSER "" INDEX 00 00:00:00 INDEX 01 00:00:10 TRACK 02 AUDIO TITLE "Angels & Demons - My Heart Is In the Grave" PERFORMER "Immortal Dansing Hits" REM COMPOSER "" INDEX 00 01:19:20 INDEX 01 01:22:00 TRACK 03 AUDIO TITLE "End Zone - The Castle of Woman of Mine" PERFORMER "Immortal Dansing Hits" REM COMPOSER "" INDEX 00 07:09:70 INDEX 01 07:12:50 TRACK 04 AUDIO TITLE "In Folio - After the Battle" PERFORMER "Immortal Dansing Hits" REM COMPOSER "" INDEX 00 10:30:65 INDEX 01 10:33:45 TRACK 05 AUDIO TITLE "Sieged Mind - From Ancient the Ages" PERFORMER "Immortal Dansing Hits" REM COMPOSER "" INDEX 00 14:55:63 INDEX 01 14:58:42 TRACK 06 AUDIO TITLE "Great Sorrow - The Wanderer" PERFORMER "Immortal Dansing Hits" REM COMPOSER "" INDEX 00 16:19:13 INDEX 01 16:21:67 TRACK 07 AUDIO TITLE "Succubus - Winter Saga" PERFORMER "Immortal Dansing Hits" REM COMPOSER "" INDEX 00 20:29:70 INDEX 01 20:32:50 TRACK 08 AUDIO TITLE "Adolf Castle - Heart of the Spring" PERFORMER "Immortal Dansing Hits" REM COMPOSER "" INDEX 00 23:08:03 INDEX 01 23:10:57 TRACK 09 AUDIO TITLE "Melissa - Suicide" PERFORMER "Immortal Dansing Hits" REM COMPOSER "" INDEX 00 28:22:50 INDEX 01 28:25:30 TRACK 10 AUDIO TITLE "Mental Home - The Euphoria" PERFORMER "Immortal Dansing Hits" REM COMPOSER "" INDEX 00 30:52:68 INDEX 01 30:55:47 TRACK 11 AUDIO TITLE "Nokturnal Mortum - Barbarian Dreams" PERFORMER "Immortal Dansing Hits" REM COMPOSER "" INDEX 00 38:42:50 INDEX 01 38:45:30 TRACK 12 AUDIO TITLE "Epilepsy Bout - Flesh without bone" PERFORMER "Immortal Dansing Hits" REM COMPOSER "" INDEX 00 41:56:65 INDEX 01 41:59:45 TRACK 13 AUDIO TITLE "In Folio - I Know" PERFORMER "Immortal Dansing Hits" REM COMPOSER "" INDEX 00 47:34:73 INDEX 01 47:37:52 TRACK 14 AUDIO TITLE "Skythrone - Desolation" PERFORMER "Immortal Dansing Hits" REM COMPOSER "" INDEX 00 51:43:00 INDEX 01 51:45:55 TRACK 15 AUDIO TITLE "Sieged Mind - Sanctuary" PERFORMER "Immortal Dansing Hits" REM COMPOSER "" INDEX 00 56:00:73 INDEX 01 56:03:52 TRACK 16 AUDIO TITLE "Gods Tower - Mysterious" PERFORMER "Immortal Dansing Hits" REM COMPOSER "" INDEX 00 57:04:55 INDEX 01 57:07:35 TRACK 17 AUDIO TITLE "Succubus - Epitaph" PERFORMER "Immortal Dansing Hits" REM COMPOSER "" INDEX 00 62:01:65 INDEX 01 62:04:45 TRACK 18 AUDIO TITLE "Goresleeps - Nameless City" PERFORMER "Immortal Dansing Hits" REM COMPOSER "" INDEX 00 64:46:60 INDEX 01 64:49:40 TRACK 19 AUDIO TITLE "Mental Home - Outro" PERFORMER "Immortal Dansing Hits" REM COMPOSER "" INDEX 00 72:22:65 INDEX 01 72:25:45


[torrentc.info]_t_5397382.torrent
Торрент: Зарегистрирован ·  [ 2017-05-05 12:18 ] ·  8244b3acd5196354b00c3d9ce6eff788f01594dc

19 KB

Статус: проверено
Скачан: 0 раз
Размер: 463 MB
Оценка: 
(Голосов: 0)
Сказали спасибо: 0  Спасибо
Похожие темы
[Профиль]    [ЛС]
Показать сообщения:    
Ответить на тему

Текущее время: Сегодня 00:11

Часовой пояс: GMT + 7



Вы не можете начинать темы
Вы не можете отвечать на сообщения
Вы не можете редактировать свои сообщения
Вы не можете удалять свои сообщения
Вы не можете голосовать в опросах
Вы не можете прикреплять файлы к сообщениям
Вы можете скачивать файлы