Теорема Зеро / The Zero Theorem (Терри Гиллиам / Terry Gilliam) [2014, фантастика, триллер, драма, комедия, HDRip] Dub (Чистый звук)

Ответить на тему
Статистика раздачи [Обновить пиров]
Размер:  588 MB   |    Зарегистрирован:  1 год 10 месяцев   |    Скачан:  0 раз

Полного источника не было: Никогда

 
   
 
 
 
Автор Сообщение

torrentc.info

Создавать темы 15-Фев-2017 09:50

[Цитировать]

Теорема Зеро-«Nothing is everything»- Оригинальное Название: The Zero Theorem
Год Выпуска: 2014 г.
Cтрана: Великобритания, Румыния, Франция, США
Жанр: фантастика, триллер, драма, комедия
Продолжительность: 01:46:38-Перевод: Профессиональный (дублированный) [Чистый звук]-Режиссер: Терри Гиллиам
В ролях: Кристоф Вальц, Мелани Тьерри, Дэвид Тьюлис, Лукас Хеджес, Мэтт Дэймон, Бен Уишоу, Тильда Суинтон, Санджив Бхаскар, Ингрид Бису, Маргарита Дойл, Петер Стормаре-Описание:
Эксцентричный компьютерный гений Коэн Лет бьется над неразрешимой теоремой. Благодаря костюму для виртуальной реальности, изобретенному мальчиком Бобом, Лету удается совершить путешествие в скрытое пространство и узнать тайну своей души. Эту разгадку ищет не только он сам, но и таинственный Менеджмент, который правит всем миром посредством всевидящих устройств под названием ManCams.
-Автор рипа: lokomotiv23-Источник: BDRip 720p
Качество: HDRip
Формат файла: MP4
Видео кодек: H.264
Аудио кодек: AAC
Видео: MPEG-4 AVC Video (H.264) / 480х272 / 640 kbps / 23.976 fps / 16:9 / Main Profile 3.0
Аудио: AAC, 2 channels, 48 kHz, 128 kbps-

MediaInfo

General
Complete name                       : Теорема зеро.2013.HDRip.mp4
Format                              : MPEG-4
Format profile                      : Base Media
Codec ID                            : isom
File size                           : 588 MiB
Duration                            : 1h 46mn
Overall bit rate mode               : Variable
Overall bit rate                    : 771 Kbps
Encoded date                        : UTC 2014-08-06 20:15:17
Tagged date                         : UTC 2014-08-06 20:15:17
Video
ID                                  : 1
Format                              : AVC
Format/Info                         : Advanced Video Codec
Format profile                      : Main@L3.0
Format settings, CABAC              : Yes
Format settings, ReFrames           : 3 frames
Codec ID                            : avc1
Codec ID/Info                       : Advanced Video Coding
Duration                            : 1h 46mn
Bit rate                            : 640 Kbps
Maximum bit rate                    : 4 668 Kbps
Width                               : 480 pixels
Height                              : 272 pixels
Display aspect ratio                : 16:9
Frame rate mode                     : Constant
Frame rate                          : 23.976 fps
Color space                         : YUV
Chroma subsampling                  : 4:2:0
Bit depth                           : 8 bits
Scan type                           : Progressive
Bits/(Pixel*Frame)                  : 0.204
Stream size                         : 488 MiB (83%)
Writing library                     : x264 core 130 r2273 b3065e6
Encoding settings                   : cabac=1 / ref=3 / deblock=1:-1:0 / analyse=0x1:0x131 / me=umh / subme=10 / psy=1 / psy_rd=1.00:0.20 / mixed_ref=1 / me_range=16 / chroma_me=1 / trellis=2 / 8x8dct=0 / cqm=0 / deadzone=21,11 / fast_pskip=0 / chroma_qp_offset=-3 / threads=6 / lookahead_threads=1 / sliced_threads=0 / nr=0 / decimate=0 / interlaced=0 / bluray_compat=0 / constrained_intra=0 / bframes=3 / b_pyramid=0 / b_adapt=2 / b_bias=0 / direct=3 / weightb=1 / open_gop=0 / weightp=2 / keyint=250 / keyint_min=23 / scenecut=40 / intra_refresh=0 / rc_lookahead=60 / rc=2pass / mbtree=1 / bitrate=640 / ratetol=1.0 / qcomp=0.60 / qpmin=0 / qpmax=69 / qpstep=4 / cplxblur=20.0 / qblur=0.5 / ip_ratio=1.40 / aq=1:1.00
Encoded date                        : UTC 2014-08-06 20:15:17
Tagged date                         : UTC 2014-08-06 20:15:38
Audio
ID                                  : 2
Format                              : AAC
Format/Info                         : Advanced Audio Codec
Format profile                      : LC
Codec ID                            : 40
Duration                            : 1h 46mn
Bit rate mode                       : Variable
Bit rate                            : 128 Kbps
Maximum bit rate                    : 158 Kbps
Channel(s)                          : 2 channels
Channel positions                   : Front: L R
Sampling rate                       : 44.1 KHz
Compression mode                    : Lossy
Delay relative to video             : 83ms
Stream size                         : 97.6 MiB (17%)
Encoded date                        : UTC 2014-08-06 20:15:36
Tagged date                         : UTC 2014-08-06 20:15:38

-

Скриншоты




[torrentc.info]_torrent-4983426.torrent
Торрент: Зарегистрирован ·  [ 2017-02-15 09:42 ] ·  735a11bd17f93480016740402eff129de5007ede

12 KB

Статус: проверено
Скачан: 0 раз
Размер: 588 MB
Оценка: 
(Голосов: 0)
Сказали спасибо: 0  Спасибо
Похожие темы
[Профиль]    [ЛС]
Показать сообщения:    
Ответить на тему

Текущее время: Сегодня 08:52

Часовой пояс: GMT + 7



Вы не можете начинать темы
Вы не можете отвечать на сообщения
Вы не можете редактировать свои сообщения
Вы не можете удалять свои сообщения
Вы не можете голосовать в опросах
Вы не можете прикреплять файлы к сообщениям
Вы можете скачивать файлы