Экипаж (Александр Митта) [1979, СССР, фильм-катастрофа, мелодрама, WEBRip]

Ответить на тему
Статистика раздачи [Обновить пиров]
Размер:  2.19 GB   |    Зарегистрирован:  1 год 9 месяцев   |    Скачан:  0 раз

Полного источника не было: Никогда

 
   
 
 
 
Автор Сообщение

torrentc.info

Создавать темы 14-Фев-2017 20:24

[Цитировать]

Экипаж
-[url=viewtopic.php?t=5238244]WEBRip-720p[/url] | WEBRip | [url=viewtopic.php?t=5355438]WEBRip-1080p[/url] | [url=viewtopic.php?t=5172340]WEBRip-AVC[/url]-Жанр: фильм-катастрофа, мелодрама
Год выхода: 1979
Продолжительность: 02:15:35
Режиссёр: Александр Митта
В ролях: Георгий Жжёнов, Анатолий Васильев, Леонид Филатов, Александра Яковлева, Ирина Акулова, Екатерина Васильева, Юрий Горобец, Александр Павлов, Галина Гладкова, Рома Монин (озвучание - Клара Румянова), Комаки Курихара, Елена Коренева, Владимир Иванов, Алексей Якубов, Антон Табаков, Ирина Савина, Лариса Барабанова, Владимир Маренков, Александр Пашутин, Александр Потапов, Клара Румянова, Иван Рыжов, Ирина Санпитер, Мария Скворцова, Леонид Чубаров, Герман Юшко
Описание: СССР, конец 1970-х годов. Герои фильма — экипаж пассажирского самолёта "Ту-154", совершающий международные рейсы. Игорь Скворцов — бортинженер, меняет любовниц одну за другой. Последней в его донжуанском списке становится стюардесса Тамара - внучка старого друга командира экипажа, Андрея Васильевича Тимченко. Бывший член экипажа Валентин Ненароков, перешедший из большой авиации в малую, страдает от непрерывных скандалов, которые ему закатывает жена Алевтина. У самого Тимченко в семье тоже проблемы: дочь забеременела, но выходить замуж за отца ребёнка отказывается. После очередной ежегодной медкомиссии Тимченко узнаёт, что, вполне вероятно, его вскоре отстранят от полётов по состоянию здоровья. А тут еще экипажу предстоит сложный рейс за границу, в город нефтяников Бидри, где случилось землетрясение большой разрушительной силы...
Доп. информация: Источник: Torrentc.org с HDTVRip ->
Сэмпл: https://m.sendspace.com/file/44gvcy
Качество видео: WEBRip [url=viewtopic.php?t=5238244]Источник: Torrentc.org[/url]
Формат файла: AVI
Видео: XviD / 1854 kbps / 704x512 / 25.000 fps
Аудио: AC3 / 6 ch / 448 kbps / 48 kHz

MediaInfo

General
Complete name : J:\Torrents\Готовые релизы\Экипаж [2 серии] (1979) WEBRip.avi
Format : AVI
Format/Info : Audio Video Interleave
Format profile : OpenDML
File size : 2.19 GiB
Duration : 2h 15mn
Overall bit rate : 2 316 Kbps
Video
ID : 0
Format : MPEG-4 Visual
Format profile : Advanced Simple@L5
Format settings, BVOP : 2
Format settings, QPel : No
Format settings, GMC : No warppoints
Format settings, Matrix : Default (MPEG)
Codec ID : XVID
Codec ID/Hint : XviD
Duration : 2h 15mn
Bit rate : 1 854 Kbps
Width : 704 pixels
Height : 512 pixels
Display aspect ratio : 1.375
Frame rate : 25.000 fps
Color space : YUV
Chroma subsampling : 4:2:0
Bit depth : 8 bits
Scan type : Progressive
Compression mode : Lossy
Bits/(Pixel*Frame) : 0.206
Stream size : 1.76 GiB (80%)
Writing library : XviD 64
Audio
ID : 1
Format : AC-3
Format/Info : Audio Coding 3
Mode extension : CM (complete main)
Format settings, Endianness : Big
Codec ID : 2000
Duration : 2h 15mn
Bit rate mode : Constant
Bit rate : 448 Kbps
Channel(s) : 6 channels
Channel positions : Front: L C R, Side: L R, LFE
Sampling rate : 48.0 KHz
Frame rate : 31.250 fps (1536 spf)
Compression mode : Lossy
Stream size : 434 MiB (19%)
Alignment : Aligned on interleaves
Interleave, duration : 32 ms (0.80 video frame)

Скриншот c названием фильма

Скриншоты



[torrentc.info]_torrent-5349640.torrent
Торрент: Зарегистрирован ·  [ 2017-02-14 20:24 ] ·  11e8aa3d02c6b3c85ae23dd003131b2919f9f90e

12 KB

Статус: проверено
Скачан: 0 раз
Размер: 2.19 GB
Оценка: 
(Голосов: 0)
Сказали спасибо: 0  Спасибо
Похожие темы
[Профиль]    [ЛС]
Показать сообщения:    
Ответить на тему

Текущее время: Сегодня 07:14

Часовой пояс: GMT + 7



Вы не можете начинать темы
Вы не можете отвечать на сообщения
Вы не можете редактировать свои сообщения
Вы не можете удалять свои сообщения
Вы не можете голосовать в опросах
Вы не можете прикреплять файлы к сообщениям
Вы можете скачивать файлы