12 могил Ходжи Насреддина (Климентий Минц) [1966, комедия, TeleCine]

Ответить на тему
Статистика раздачи [Обновить пиров]
Размер:  1.07 GB   |    Зарегистрирован:  1 год 9 месяцев   |    Скачан:  3 раза

Полного источника не было: 1 месяц 10 дней

 
   
 
 
 
Автор Сообщение

torrentc.info

Создавать темы 14-Фев-2017 20:24

[Цитировать]

12 могил Ходжи Насреддина
Жанр: комедия
Год выхода: 1966
Продолжительность: 01:12:24
Режиссёр: Климентий Минц
В ролях: Башир Сафар Оглы, С.Азаматова, Н.Шомансурова, Н.Гиясов, М.Аронбаев, Е.Весник, Ю.Холматов, А.Смирнов, С.Голубев, Т.Таджибаев, Н.Кузьмин.
Описание: Ходжа Насреддин, возмутитель спокойствия и народный герой, путешествует по векам. Эмиры и ханы многих стран и веков приговаривают его к смерти, но он остается живой, ибо Ходжа Насреддин - бессмертен. Наконец, Ходжа Насреддин попадает в двадцатый век, где его ждут новые приключения. Он участвует в диспуте об историчности существования Ходжи Насреддина, оказывается в сумасшедшем доме, ну не верят ему, что родился он в 1248 году, помогает "свегнуть" эмира во время съемок художественного фильма, и оказывается в совхозе имени Ходжи Насреддина, где встречает настоящих советских баев и бюрократов.
Доп. информация: Телесин с 35-мм фильмокопии из моей коллекции, на замену ранее раздававшейся экранке. Увы - за прошедшие 8 лет с момента первой раздачи фильм так и не появился в сети в другой версии. Вторая часть фильма (фильм в 9 частях) утеряна.
Семпл: http://sendfile.su/1305265
Качество видео: TeleCine
Формат файла: AVI
Видео: XviD MPEG-4, 672x496 (1.35:1), 25 fps, ~1979 kbps avg, 0.24 bit/pixel
Аудио: русский, MPEG Layer 3, 48 kHz, ~128.00 kbps avg, 2 ch

MediaInfo

Общее
Полное имя : 12mogil_Hodzhi_Nasreddina.avi
Формат файла : AVI
Формат файла/Информация : Audio Video Interleave
Размер файла : 1,07 Гбайт
Продолжительность : 1 ч. 12 м.
Общий поток : 2118 Кбит/сек
Программа кодирования : VirtualDubMod 1.5.10.2 (build 2540/release)
Библиотека кодирования : VirtualDubMod build 2540/release
Видео
Идентификатор : 0
Формат файла : MPEG-4 Visual
Профиль формата : Advanced Simple@L5
Параметр BVOP формата : 2
Параметр QPel формата : Нет
Параметр GMC формата : Без точки перехода
Параметр матрицы формата : Default (H.263)
Режим смешивания : Сжатый битовый поток
Идентификатор кодека : XVID
Идентификатор кодека/Подсказка : XviD
Продолжительность : 1 ч. 12 м.
Битрейт : 1980 Кбит/сек
Ширина : 672 пикселя
Высота : 496 пикселей
Соотношение сторон : 4:3
Частота кадров : 25,000 кадров/сек
Цветовое пространство : YUV
Субдискретизация насыщенности : 4:2:0
Битовая глубина : 8 бит
Тип развёртки : Прогрессивная
Метод сжатия : С потерями
Бит/(Пиксели*Кадры) : 0.238
Размер потока : 1,00 Гбайт (93%)
Библиотека кодирования : XviD 1.2.1 (UTC 2008-12-04)
Аудио
Идентификатор : 1
Формат файла : MPEG Audio
Версия формата : Version 1
Профиль формата : Layer 3
Режим : Joint stereo
Идентификатор кодека : 55
Идентификатор кодека/Подсказка : MP3
Продолжительность : 1 ч. 12 м.
Вид битрейта : Постоянный
Битрейт : 128 Кбит/сек
Каналы : 2 канала
Частота : 48,0 КГц
Метод сжатия : С потерями
Размер потока : 66,3 Мбайт (6%)
Выравнивание : Соединение по промежуткам
Продолжительность промежутка : 40 мс. (1,00 видеокадр)
Время предзагрузки промежутка : 504 мс.

Скриншоты



[torrentc.info]_torrent-5351766.torrent
Торрент: Зарегистрирован ·  [ 2017-02-14 20:24 ] ·  a3af11987ee34e30642d486776d01c9553414c83

11 KB

Статус: проверено
Скачан: 3 раз
Размер: 1.07 GB
Оценка: 
(Голосов: 0)
Сказали спасибо: 0  Спасибо
Похожие темы
[Профиль]    [ЛС]
Показать сообщения:    
Ответить на тему

Текущее время: Сегодня 07:12

Часовой пояс: GMT + 7



Вы не можете начинать темы
Вы не можете отвечать на сообщения
Вы не можете редактировать свои сообщения
Вы не можете удалять свои сообщения
Вы не можете голосовать в опросах
Вы не можете прикреплять файлы к сообщениям
Вы можете скачивать файлы