Десница великого мастера (Вахтанг Таблиашвили, Давид Абашидзе) [1969, Драма, мелодрама, история, экранизация, VHSRip]

Ответить на тему
Статистика раздачи [Обновить пиров]
Размер:  1.4 GB   |    Зарегистрирован:  1 год 9 месяцев   |    Скачан:  0 раз

Полного источника не было: Никогда

 
   
 
 
 
Автор Сообщение

torrentc.info

Создавать темы 14-Фев-2017 20:24

[Цитировать]

Десница великого мастера
Производство: СССР, "Грузия-фильм"
Жанр: Драма, мелодрама, история, экранизация
Год выхода: 1969
Продолжительность: 02:30:52
Режиссёр: Вахтанг Таблиашвили, Давид Абашидзе
Перевод: внешние субтитры
Субтитры: Русские отключаемые
Формат файла субтитров: softsub (SRT)
В ролях: Тенгиз Арчвадзе, Отар Мегвинетухуцеси, Васо Годзиашвили, Лали Бадурашвили, Софико Магалашвили, Юаншер Юрхадзе, Акакий Васадзе, Георгий Геловани, Дмитрий Мчедлидзе, Лия Асатиани, Верико Анджапаридзе, Давид Абашидзе, Тенгиз Мушкудиани, Сесилия Такаишвили, Лейла Абашидзе, Спартак Багашвили, Котэ Даушвили, Гиви Тохадзе, Зураб Капианидзе, Цаца Амиреджиби, Тина Чарквиани, Лика Чавчавадзе, Михаил Чихладзе, Ламзира Чхеидзе
Описание: Средневековая Грузия. В фильме рассказывается о архитекторе Константине, которому было поручено строительство церкви. Ему было очень трудно из-за знатных людей, которым не нравится назначение на эту должность нищего. Возлюбленная упрекает его в том, что он всё время заботиться о своём "Светицховели" (так называется церковь), и не может уделить ей немного времени, а царь и знатные люди ничего хорошего взамен не сделают. А он и сам знает об этом, но строит не потому, что ждёт взамен богатства, или благодарности…
Доп. информация: по мотивам одноимённого романа К. С. Гамсахурдия. Премьера - 31 января 1972 года (Москва).
Авторы сценария: Константин Гамсахурдия, Вахтанг Таблиашвили
Главный оператор: Георгий Челидзе
Композитор: Арчил Кереселидзе

Релиз группы: [img]http://torrentc.org/images/torrentc1.png[/img]

Феникс клуб.
Субтитры: Русские отключаемые
Перевод и создание субтитров: gbakh.
Две серии одним файлом.
Сэмпл: https://yadi.sk/i/W3YgWAOr3CnkJu
Качество видео: VHSRip
Формат файла: AVI
Видео: XviD, 1227 Кбит/с, 640x336, 4:3, 25,000 кадров/сек
Аудио: Грузинский, MP3, 44,1 КГц, 96 Кбит/с, 2 канала

MediaInfo

Формат файла : AVI
Формат файла/Информация : Audio Video Interleave
Размер файла : 1,40 Гбайт
Продолжительность : 2 ч. 30 м.
Общий поток : 1333 Кбит/сек
Программа кодирования : VirtualDubMod 1.5.10.2 (build 2540/release)
Библиотека кодирования : VirtualDubMod build 2540/release
Видео
Идентификатор : 0
Формат файла : MPEG-4 Visual
Профиль формата : Simple@L0
Параметр BVOP формата : Нет
Параметр QPel формата : Нет
Параметр GMC формата : Без точки перехода
Параметр матрицы формата : Default (H.263)
Идентификатор кодека : XVID
Идентификатор кодека/Подсказка : XviD
Продолжительность : 2 ч. 30 м.
Битрейт : 1227 Кбит/сек
Ширина : 640 пикселей
Высота : 336 пикселей
Соотношение сторон : 4:3
Соотношение сторон в оригинале : 1,905
Частота кадров : 25,000 кадров/сек
Цветовое пространство : YUV
Субдискретизация насыщенности : 4:2:0
Битовая глубина : 8 бит
Тип развёртки : Прогрессивная
Метод сжатия : С потерями
Бит/(Пиксели*Кадры) : 0.228
Размер потока : 1,29 Гбайт (92%)
Библиотека кодирования : XviD 1.2.1 (UTC 2008-12-04)
Аудио
Идентификатор : 1
Формат файла : MPEG Audio
Версия формата : Version 1
Профиль формата : Layer 3
Режим : Joint stereo
Расширение режима : MS Stereo
Идентификатор кодека : 55
Идентификатор кодека/Подсказка : MP3
Продолжительность : 2 ч. 30 м.
Вид битрейта : Постоянный
Битрейт : 96,0 Кбит/сек
Каналы : 2 канала
Частота : 44,1 КГц
Метод сжатия : С потерями
Задержка видео : 26 мс.
Размер потока : 104 Мбайт (7%)
Выравнивание : Разделение по промежуткам
Продолжительность промежутка : 40 мс. (1,00 видеокадр)
Время предзагрузки промежутка : 500 мс.

Скриншот c названием фильма

Скриншоты



[torrentc.info]_torrent-5352184.torrent
Торрент: Зарегистрирован ·  [ 2017-02-14 20:24 ] ·  47341e9e2e0516f459f767b46ec1615b0780762b

29 KB

Статус: проверено
Скачан: 0 раз
Размер: 1.4 GB
Оценка: 
(Голосов: 0)
Сказали спасибо: 0  Спасибо
Похожие темы
[Профиль]    [ЛС]
Показать сообщения:    
Ответить на тему

Текущее время: Сегодня 07:02

Часовой пояс: GMT + 7



Вы не можете начинать темы
Вы не можете отвечать на сообщения
Вы не можете редактировать свои сообщения
Вы не можете удалять свои сообщения
Вы не можете голосовать в опросах
Вы не можете прикреплять файлы к сообщениям
Вы можете скачивать файлы