Мужское воспитание (Усман Сапаров, Язгельды Сеидов) [1982, Драма, TVRip]

Ответить на тему
Статистика раздачи [Обновить пиров]
Размер:  699 MB   |    Зарегистрирован:  1 год 9 месяцев   |    Скачан:  0 раз

Полного источника не было: Никогда

 
   
 
 
 
Автор Сообщение

torrentc.info

Создавать темы 14-Фев-2017 20:24

[Цитировать]

Мужское воспитание
Жанр: Драма
Год выхода: 1982
Продолжительность: 01:12:44
Тип перевода: Советский дубляж. Фильм дублирован на киностудии М.Горького
Субтитры: Английские (вшитые)
Режиссёры: Усман Сапаров, Язгельды Сеидов
В ролях: Бегенч Курбандурдыев, Ата Довлетов, Дурдымамет Ораев, Гуля Керимова
Описание: Отец мечтал видеть в сыне сильного и бесстрашного мужчину и поэтому отправил семилетнего робкого Чамана к деду, на далекое пастбище. Не сразу привык Чаман к новому образу жизни и стал хозяином кошары, верным помощником дедушке Мергену.
Доп. информация:
Первый приз по фильмам для детей и юношества ВКФ-83 в Ленинграде,
Большой приз города Мангейма МКФ в Мангейме-83,
Золотой приз конкурса фильмов для детей МКФ в Москве-83,
Малая золотая медаль XIV МКФ детских и юношеских фильмов в Джиффони (Италия),
Вторая премия фильму VI МКФ детских фильмов в Кито-83 (Эквадор),
Гран-при I МКФ в Лисабоне-83,
Специальный приз жюри III МКФ "Молодая публика" в Лаоне-94 (Франция),
Гран-при МКФ детских и юношеских фильмов в Томаре-84 (Португалия),
Государственная премия СССР (1984, за произведения литературы и искусства для детей, удостоены режиссеры У.Сапаров и Я.Сеидов, оператор Н.Шамухаммедов, художник Г.Гусейнов, композитор Н.Халмамедов, актер А.Довлетов).

Качество видео: TVRip
Формат файла: AVI
Видео: 720x544 (1.32:1), 25 fps, XviD MPEG-4 ~1206 kbps avg, 0.12 bit/pixel
Аудио: 44.100 kHz, MPEG Layer 3, 2 ch, ~128.00 kbps avg

MediaInfo

Complete name : Muzhskoe.vospitanie.1982.TVRip.fenixclub.avi
Format : AVI
Format/Info : Audio Video Interleave
File size : 699 MiB
Duration : 1h 12mn
Overall bit rate : 1 344 Kbps
Writing application : VirtualDubModRus 1.5.10.2 (build 2542/release)
Writing library : VirtualDub build 32842/release
Video
ID : 0
Format : MPEG-4 Visual
Format profile : Advanced Simple@L5
Format settings, BVOP : Yes
Format settings, QPel : No
Format settings, GMC : No warppoints
Format settings, Matrix : Default (H.263)
Codec ID : XVID
Codec ID/Hint : XviD
Duration : 1h 12mn
Bit rate : 1 206 Kbps
Width : 720 pixels
Height : 544 pixels
Display aspect ratio : 4:3
Frame rate : 25.000 fps
Color space : YUV
Chroma subsampling : 4:2:0
Bit depth : 8 bits
Scan type : Progressive
Compression mode : Lossy
Bits/(Pixel*Frame) : 0.123
Stream size : 628 MiB (90%)
Writing library : XviD 73
Audio
ID : 1
Format : MPEG Audio
Format version : Version 1
Format profile : Layer 3
Mode : Joint stereo
Mode extension : MS Stereo
Codec ID : 55
Codec ID/Hint : MP3
Duration : 1h 12mn
Bit rate mode : Constant
Bit rate : 128 Kbps
Channel(s) : 2 channels
Sampling rate : 44.1 KHz
Compression mode : Lossy
Stream size : 66.6 MiB (10%)
Alignment : Split accross interleaves
Interleave, duration : 40 ms (1.00 video frame)
Interleave, preload duration : 500 ms

Скриншоты







[torrentc.info]_torrent-5352861.torrent
Торрент: Зарегистрирован ·  [ 2017-02-14 20:24 ] ·  9297fee9ad7e0762989e5028613b80e4fb0e20a3

14 KB

Статус: проверено
Скачан: 0 раз
Размер: 699 MB
Оценка: 
(Голосов: 0)
Сказали спасибо: 0  Спасибо
Похожие темы
[Профиль]    [ЛС]
Показать сообщения:    
Ответить на тему

Текущее время: Сегодня 07:47

Часовой пояс: GMT + 7



Вы не можете начинать темы
Вы не можете отвечать на сообщения
Вы не можете редактировать свои сообщения
Вы не можете удалять свои сообщения
Вы не можете голосовать в опросах
Вы не можете прикреплять файлы к сообщениям
Вы можете скачивать файлы