Экипаж (Александр Митта) [1979, фильм-катастрофа, мелодрама, WEBRip-AVC] [Open Matte]

Ответить на тему
Статистика раздачи [Обновить пиров]
Размер:  2.18 GB   |    Зарегистрирован:  1 год 6 месяцев   |    Скачан:  0 раз

Полного источника не было: Никогда

 
   
 
 
 
Автор Сообщение

torrentc.info

Создавать темы 14-Фев-2017 20:24

[Цитировать]

Экипаж / Open Matte
-[url=viewtopic.php?t=5238244]WEBRip-720p[/url] | [url=viewtopic.php?t=5349640]WEBRip[/url] | [url=viewtopic.php?t=5355438]WEBRip-1080p[/url] | WEBRip-AVC-Жанр: фильм-катастрофа, мелодрама
Год выхода: 1979
Продолжительность: 02:15:35
Режиссёр: Александр Митта
В ролях: Георгий Жжёнов, Анатолий Васильев, Леонид Филатов, Александра Яковлева, Ирина Акулова, Екатерина Васильева, Юрий Горобец, Александр Павлов, Галина Гладкова, Рома Монин (озвучание - Клара Румянова), Комаки Курихара, Елена Коренева, Владимир Иванов, Алексей Якубов, Антон Табаков, Ирина Савина, Лариса Барабанова, Владимир Маренков, Александр Пашутин, Александр Потапов, Клара Румянова, Иван Рыжов, Ирина Санпитер, Мария Скворцова, Леонид Чубаров, Герман Юшко
Описание: СССР, конец 1970-х годов. Герои фильма — экипаж пассажирского самолёта "Ту-154", совершающий международные рейсы. Игорь Скворцов — бортинженер, меняет любовниц одну за другой. Последней в его донжуанском списке становится стюардесса Тамара - внучка старого друга командира экипажа, Андрея Васильевича Тимченко. Бывший член экипажа Валентин Ненароков, перешедший из большой авиации в малую, страдает от непрерывных скандалов, которые ему закатывает жена Алевтина. У самого Тимченко в семье тоже проблемы: дочь забеременела, но выходить замуж за отца ребёнка отказывается. После очередной ежегодной медкомиссии Тимченко узнаёт, что, вполне вероятно, его вскоре отстранят от полётов по состоянию здоровья. А тут еще экипажу предстоит сложный рейс за границу, в город нефтяников Бидри, где случилось землетрясение большой разрушительной силы...
Доп. информация: Отличия от DVD - иное наполнение кадра.
Источник: Torrentc.org с DVDRip-AVC [url=viewtopic.php?t=4690396]http://Torrentc.org/forum/viewtopic.php?t=4690396[/url] ->
[url=viewtopic.php?t=4471600]Фильмы в Fullscreen (4:3) и Open Matte (16:9) форматах[/url]
Сэмпл: http://multi-up.com/1140446
Качество видео: WEBRip-AVC [url=viewtopic.php?t=5355438]Источник: Torrentc.org[/url]
Формат файла: MKV
Видео: XviD / 1855 kbps / 1024x576 / 24.000 fps
Аудио: AC3 / 6 ch / 448 kbps / 48 kHz

MediaInfo

General
Unique ID : 182926010760306955919530938253272364502 (0x899E44A6FD507083B452BD2858D335D6)
Complete name : J:\Torrents\Готовые релизы\Экипаж [2 серии] (1979) WEBRip-AVC [Open Matte].mkv
Format : Matroska
Format version : Version 2
File size : 2.18 GiB
Duration : 2h 15mn
Overall bit rate : 2 305 Kbps
Movie name : Экипаж [2 серии] (1979) [Open Matte]
Encoded date : UTC 2017-02-11 00:16:07
Writing application : mkvmerge v5.5.0 ('Healer') built on Apr 24 2012 23:47:03
Writing library : libebml v1.2.3 + libmatroska v1.3.0
Video
ID : 1
Format : AVC
Format/Info : Advanced Video Codec
Format profile : High@L4.1
Format settings, CABAC : Yes
Format settings, ReFrames : 2 frames
Codec ID : V_MPEG4/ISO/AVC
Duration : 2h 15mn
Bit rate : 1 855 Kbps
Width : 1 024 pixels
Height : 576 pixels
Display aspect ratio : 16:9
Frame rate mode : Constant
Frame rate : 24.000 fps
Color space : YUV
Chroma subsampling : 4:2:0
Bit depth : 8 bits
Scan type : Progressive
Bits/(Pixel*Frame) : 0.131
Stream size : 1.71 GiB (79%)
Title : WEBRip (AVC) / MPEG-4 AVC/H.264 / 1856 kbps / 1024x576 / 24.000 fps
Writing library : x264 core 142
Encoding settings : cabac=1 / ref=1 / deblock=1:-1:-1 / analyse=0x3:0 / me=hex / subme=5 / psy=0 / mixed_ref=0 / me_range=16 / chroma_me=1 / trellis=0 / 8x8dct=1 / cqm=0 / deadzone=21,11 / fast_pskip=0 / chroma_qp_offset=0 / threads=4 / lookahead_threads=1 / sliced_threads=0 / nr=0 / decimate=1 / interlaced=0 / bluray_compat=0 / constrained_intra=0 / bframes=2 / b_pyramid=0 / b_adapt=1 / b_bias=0 / direct=1 / weightb=0 / open_gop=0 / weightp=0 / keyint=24 / keyint_min=13 / scenecut=40 / intra_refresh=0 / rc=2pass / mbtree=0 / bitrate=1855 / ratetol=1.0 / qcomp=0.60 / qpmin=0 / qpmax=69 / qpstep=4 / cplxblur=20.0 / qblur=0.5 / ip_ratio=1.40 / pb_ratio=1.30 / aq=1:1.00
Language : Russian
Default : Yes
Forced : Yes
Color range : Limited
Color primaries : BT.601 NTSC
Transfer characteristics : BT.709
Matrix coefficients : BT.601
Audio
ID : 2
Format : AC-3
Format/Info : Audio Coding 3
Mode extension : CM (complete main)
Format settings, Endianness : Big
Codec ID : A_AC3
Duration : 2h 15mn
Bit rate mode : Constant
Bit rate : 448 Kbps
Channel(s) : 6 channels
Channel positions : Front: L C R, Side: L R, LFE
Sampling rate : 48.0 KHz
Frame rate : 31.250 fps (1536 spf)
Compression mode : Lossy
Delay relative to video : 100ms
Stream size : 434 MiB (19%)
Title : Original (Rus) / AC3 / 6 ch / 448 kbps / 48 kHz
Language : Russian
Default : Yes
Forced : Yes

Скриншот c названием фильма

Скриншоты


-

Обновление 12 февраля 2017

Видеоряд заменён с HDTVRip на WEBRip-AVC
Источник: Torrentc.org скриншотов ->


[torrentc.info]_torrent-5172340.torrent
Торрент: Зарегистрирован ·  [ 2017-02-14 20:24 ] ·  08b15a25a711504f12a23879434afbb20431be2a

12 KB

Статус: проверено
Скачан: 0 раз
Размер: 2.18 GB
Оценка: 
(Голосов: 0)
Сказали спасибо: 0  Спасибо
Похожие темы
[Профиль]    [ЛС]
Показать сообщения:    
Ответить на тему

Текущее время: Сегодня 21:03

Часовой пояс: GMT + 7



Вы не можете начинать темы
Вы не можете отвечать на сообщения
Вы не можете редактировать свои сообщения
Вы не можете удалять свои сообщения
Вы не можете голосовать в опросах
Вы не можете прикреплять файлы к сообщениям
Вы можете скачивать файлы