(Thrash Metal) [CD] Crisis - Дискография - 1994-2004 - 4 CD, FLAC (image+.cue), lossless

Reply to topic
DL-List and Torrent activity [Update пиров]
Size:  1.96 GB   |    Registered:  2 years 8 months   |    Completed:  1 time

Seeder not seen: 6 months 21 day

 
   
 
 
 
Author Message

Кейт

Post 25-Mar-2017 11:01

[Quote]


Lossless Group представляет:Crisis
Дискография
Жанр: Thrash Metal
Год выхода диска: 1994-2004
Производитель диска: США
Страна: США
Аудио кодек: FLAC
Тип рипа: image+.cue
Битрейт аудио: lossless
Продолжительность: 4 CD
Комплектация: Для каждого диска: FLAC со встроенным cue, отдельные cue для wav и flac, .toc file для cdrdao, полный набор сканов, логи.
hexonut [Lossless Group, Torrentc]
Трэклист:

1994-8 Convulsions

Лейбл: Metal Blade Records
Страна-производитель диска: США
Год издания диска: 1997
Номер по каталогу: 3984-14141-2
Crisis - 1994 - 8 Convulsions
01. There Goes My Soul (04:51)
02. Sweething (03:44)
03. Gemini (03:12)
04. More Than Down (03:24)
05. Smash To Pieces (03:27)
06. Drilling Me (05:00)
07. Rotten Anyway (03:49)
08. Keep Me From Falling (05:46)
Продолжительность: 00:33:11

EAC Log

Exact Audio Copy V1.0 beta 4 from 7. December 2014
EAC extraction logfile from 3. March 2017, 16:06
Crisis / 8 Convulsions
Used drive : MATSHITADVD-RAM UJ8C0 Adapter: 1 ID: 0
Read mode : SecureUtilize accurate stream : YesDefeat audio cache : YesMake use of C2 pointers : No
Read offset correction : 103Overread into Lead-In and Lead-Out : NoFill up missing offset samples with silence : YesDelete leading and trailing silent blocks : NoNull samples used in CRC calculations : YesUsed interface : Installed external ASPI interface
Used output format : Internal WAV RoutinesSample format : 44.100 Hz; 16 Bit; Stereo
TOC of the extracted CD
Track | Start | Length | Start sector | End sector --------------------------------------------------------- 1 | 0:00.00 | 4:51.08 | 0 | 21832 2 | 4:51.08 | 3:43.58 | 21833 | 38615 3 | 8:34.66 | 3:11.65 | 38616 | 53005 4 | 11:46.56 | 3:23.38 | 53006 | 68268 5 | 15:10.19 | 3:26.48 | 68269 | 83766 6 | 18:36.67 | 4:59.58 | 83767 | 106249 7 | 23:36.50 | 3:48.64 | 106250 | 123413 8 | 27:25.39 | 5:45.71 | 123414 | 149359
Range status and errors
Selected range
Filename U:\data\hexonut\Seeding\Crisis\1994-8 Convulsions\8 Convulsions.wav
Peak level 97.7 % Extraction speed 2.5 X Range quality 100.0 % Test CRC 41053139 Copy CRC 41053139 Copy OK
No errors occurred
AccurateRip summary
Track 1 not present in databaseTrack 2 not present in databaseTrack 3 not present in databaseTrack 4 not present in databaseTrack 5 not present in databaseTrack 6 not present in databaseTrack 7 not present in databaseTrack 8 not present in database
None of the tracks are present in the AccurateRip database
End of status report
==== Log checksum 59B6FD0812E9E42F4AF2E165EF6A548D1469400BBF032C4EDF173B4F82A4D436 ====

1996-Deathshead Extermination

Лейбл: Metal Blade Records
Страна-производитель диска: США
Год издания диска: 1996
Номер по каталогу: 3984-14108-2
Crisis - 1996 - Deathshead Extermination
01. Onslaught (02:06)
02. Working Out The Graves (05:13)
03. Wretched (03:42)
04. The Watcher (03:57)
05. Deadfall (03:41)
06. Methodology (07:45)
07. Bloodlines (03:37)
08. Nowhere But Lost (04:32)
09. Different Ways Of Decay (02:51)
10. Prisoner Scavenger (04:23)
11. 2 Minutes Hate (04:17)
12. Aftermath (04:27)
Продолжительность: 00:50:30

EAC Log

Exact Audio Copy V1.1 from 23. June 2015
EAC extraction logfile from 3. March 2017, 12:23
Crisis / Deathshead Extermination
Used drive : PLEXTOR CD-R PX-240A Adapter: 0 ID: 0
Read mode : SecureUtilize accurate stream : YesDefeat audio cache : YesMake use of C2 pointers : No
Read offset correction : 6Overread into Lead-In and Lead-Out : NoFill up missing offset samples with silence : YesDelete leading and trailing silent blocks : NoNull samples used in CRC calculations : YesUsed interface : Installed external ASPI interface
Used output format : Internal WAV RoutinesSample format : 44.100 Hz; 16 Bit; Stereo
TOC of the extracted CD
Track | Start | Length | Start sector | End sector --------------------------------------------------------- 1 | 0:00.00 | 2:06.22 | 0 | 9471 2 | 2:06.22 | 5:12.73 | 9472 | 32944 3 | 7:19.20 | 3:41.67 | 32945 | 49586 4 | 11:01.12 | 3:56.68 | 49587 | 67354 5 | 14:58.05 | 3:40.67 | 67355 | 83921 6 | 18:38.72 | 7:44.45 | 83922 | 118766 7 | 26:23.42 | 3:36.65 | 118767 | 135031 8 | 30:00.32 | 4:31.73 | 135032 | 155429 9 | 34:32.30 | 2:51.02 | 155430 | 168256 10 | 37:23.32 | 4:22.70 | 168257 | 187976 11 | 41:46.27 | 4:16.50 | 187977 | 207226 12 | 46:03.02 | 4:26.58 | 207227 | 227234
Range status and errors
Selected range
Filename Z:\data\hexonut\Seeding\Crisis\1996-Deathshead Extermination\Deathshead Extermination.wav
Peak level 100.0 % Extraction speed 4.7 X Range quality 99.9 % Test CRC 750CCEBA Copy CRC 750CCEBA Copy OK
No errors occurred
AccurateRip summary
Track 1 accurately ripped (confidence 2) [93A03D99] (AR v1)Track 2 accurately ripped (confidence 2) [195BC675] (AR v1)Track 3 accurately ripped (confidence 2) [5C5D6ABB] (AR v1)Track 4 accurately ripped (confidence 2) [ED6A78E0] (AR v1)Track 5 accurately ripped (confidence 2) [A1434F39] (AR v1)Track 6 accurately ripped (confidence 2) [4A927D5F] (AR v1)Track 7 accurately ripped (confidence 2) [A472EB4F] (AR v1)Track 8 accurately ripped (confidence 2) [59923E49] (AR v1)Track 9 accurately ripped (confidence 2) [5D475CEF] (AR v1)Track 10 accurately ripped (confidence 2) [E2139743] (AR v1)Track 11 cannot be verified as accurate (confidence 2) [2ED6F526], AccurateRip returned [2A1BA38F] (AR v2)Track 12 cannot be verified as accurate (confidence 2) [90CA5909], AccurateRip returned [714AB7CE] (AR v2)
10 track(s) accurately ripped 2 track(s) could not be verified as accurate
Some tracks could not be verified as accurate
End of status report
==== Log checksum 3068B448AF36E138B8360CCBFC8414C3554C32DAA9B578367FD28983FB1CD749 ====

1997-The Hollowing

Лейбл: Children Of Rage Records / Martyr Music Group
Страна-производитель диска: США
Год издания диска: 1994
Номер по каталогу: MARTYR 0044-2
Crisis - 1997 - The Hollowing
01. Mechanical Man (03:12)
02. In The Shadow Of The Sun (06:57)
03. Fires Of Sorrow (06:32)
04. Vision And The Verity (04:32)
05. Kingdom's End (04:50)
06. After The Flood (02:52)
07. Sleeping The Wicked (03:10)
08. Surviving The Siren (06:49)
09. Take The Low Road (02:32)
10. Discipline Of Degradation (05:12)
11. Come To Light (08:44)
Продолжительность: 00:55:24

EAC Log

Exact Audio Copy V1.1 from 23. June 2015
EAC extraction logfile from 3. March 2017, 13:04
Crisis / The Hollowing
Used drive : PLEXTOR DVDR PX-760A Adapter: 0 ID: 1
Read mode : SecureUtilize accurate stream : YesDefeat audio cache : YesMake use of C2 pointers : No
Read offset correction : 30Overread into Lead-In and Lead-Out : YesFill up missing offset samples with silence : YesDelete leading and trailing silent blocks : NoNull samples used in CRC calculations : YesUsed interface : Installed external ASPI interface
Used output format : Internal WAV RoutinesSample format : 44.100 Hz; 16 Bit; Stereo
TOC of the extracted CD
Track | Start | Length | Start sector | End sector --------------------------------------------------------- 1 | 0:00.00 | 3:15.15 | 0 | 14639 2 | 3:15.15 | 6:57.17 | 14640 | 45931 3 | 10:12.32 | 6:31.03 | 45932 | 75259 4 | 16:43.35 | 4:32.47 | 75260 | 95706 5 | 21:16.07 | 4:51.15 | 95707 | 117546 6 | 26:07.22 | 2:48.28 | 117547 | 130174 7 | 28:55.50 | 3:14.15 | 130175 | 144739 8 | 32:09.65 | 6:44.60 | 144740 | 175099 9 | 38:54.50 | 2:35.55 | 175100 | 186779 10 | 41:30.30 | 5:10.45 | 186780 | 210074 11 | 46:41.00 | 8:42.60 | 210075 | 249284
Range status and errors
Selected range
Filename Z:\data\hexonut\Seeding\Crisis\1997-The Hollowing\The Hollowing.wav
Peak level 100.0 % Extraction speed 2.4 X Range quality 100.0 % Test CRC EFD6028F Copy CRC EFD6028F Copy OK
No errors occurred
AccurateRip summary
Track 1 accurately ripped (confidence 9) [995785FF] (AR v2)Track 2 accurately ripped (confidence 9) [EFDDDA4E] (AR v2)Track 3 accurately ripped (confidence 9) [6CAB999D] (AR v2)Track 4 accurately ripped (confidence 9) [3175CC16] (AR v2)Track 5 accurately ripped (confidence 9) [C6F23B2E] (AR v2)Track 6 accurately ripped (confidence 9) [14133724] (AR v2)Track 7 accurately ripped (confidence 9) [82B7B958] (AR v2)Track 8 accurately ripped (confidence 9) [1AC7A1C6] (AR v2)Track 9 accurately ripped (confidence 9) [CA24EEF8] (AR v2)Track 10 accurately ripped (confidence 9) [20DF4EE0] (AR v2)Track 11 accurately ripped (confidence 9) [243BE5FE] (AR v2)
All tracks accurately ripped
End of status report
==== Log checksum 9F7B441305E125BDF7628EBE323042092573682DE2457735BAF9074503361AB9 ====

2004-Like Sheep Led To Slaughter

Лейбл: The End Records
Страна-производитель диска: США
Год издания диска: 2004
Номер по каталогу: TE044
Два издания - пластик и дигипак, отличаются только оформлением.
Crisis - 2004 - Like Sheep Led To Slaughter
01. Omen (00:55)
02. Waking The Dead (03:10)
03. A Graveyard For Bitches (04:54)
04. Nomad (04:51)
05. Politics Of Domination (04:30)
06. Blood Burden (03:00)
07. Rats In A Maze (01:17)
08. Secrets Of The Prison House (06:38)
09. Corpus Apocalypse (04:32)
10. Study In Cancer (03:52)
11. Exit Catacomb (05:26)
12. The Fate (03:39)
Продолжительность: 00:46:44

EAC Log

Exact Audio Copy V1.1 from 23. June 2015
EAC extraction logfile from 3. March 2017, 12:31
Crisis / Like Sheep Led To Slaughter
Used drive : HL-DT-STBD-RE WH16NS40 Adapter: 6 ID: 0
Read mode : SecureUtilize accurate stream : YesDefeat audio cache : YesMake use of C2 pointers : No
Read offset correction : 6Overread into Lead-In and Lead-Out : NoFill up missing offset samples with silence : YesDelete leading and trailing silent blocks : NoNull samples used in CRC calculations : YesUsed interface : Installed external ASPI interface
Used output format : Internal WAV RoutinesSample format : 44.100 Hz; 16 Bit; Stereo
TOC of the extracted CD
Track | Start | Length | Start sector | End sector --------------------------------------------------------- 1 | 0:00.00 | 0:54.40 | 0 | 4089 2 | 0:54.40 | 3:09.42 | 4090 | 18306 3 | 4:04.07 | 4:53.38 | 18307 | 40319 4 | 8:57.45 | 4:52.32 | 40320 | 62251 5 | 13:50.02 | 4:30.03 | 62252 | 82504 6 | 18:20.05 | 2:58.60 | 82505 | 95914 7 | 21:18.65 | 1:17.37 | 95915 | 101726 8 | 22:36.27 | 6:37.40 | 101727 | 131541 9 | 29:13.67 | 4:32.18 | 131542 | 151959 10 | 33:46.10 | 3:55.20 | 151960 | 169604 11 | 37:41.30 | 5:27.12 | 169605 | 194141 12 | 43:08.42 | 3:35.13 | 194142 | 210279
Range status and errors
Selected range
Filename Z:\data\hexonut\Seeding\Crisis\2004-Like Sheep Led To Slaughter\Like Sheep Led To Slaughter.wav
Peak level 100.0 % Extraction speed 6.8 X Range quality 99.9 % Test CRC CF9A6F25 Copy CRC CF9A6F25 Copy OK
No errors occurred
AccurateRip summary
Track 1 cannot be verified as accurate (confidence 2) [E6D31912], AccurateRip returned [116ACEAE] (AR v2)Track 2 cannot be verified as accurate (confidence 2) [3808CDA5], AccurateRip returned [C3670CE2] (AR v2)Track 3 cannot be verified as accurate (confidence 2) [771E3537], AccurateRip returned [9D66EC85] (AR v2)Track 4 cannot be verified as accurate (confidence 2) [CB5D979F], AccurateRip returned [F3222718] (AR v2)Track 5 cannot be verified as accurate (confidence 2) [0B97B7CC], AccurateRip returned [4692B4EA] (AR v2)Track 6 cannot be verified as accurate (confidence 2) [625C64DF], AccurateRip returned [B91FDD57] (AR v2)Track 7 cannot be verified as accurate (confidence 2) [12955E0C], AccurateRip returned [613E8A12] (AR v2)Track 8 cannot be verified as accurate (confidence 2) [49D8E2C4], AccurateRip returned [81A409F6] (AR v2)Track 9 cannot be verified as accurate (confidence 2) [D018B70A], AccurateRip returned [A929815E] (AR v2)Track 10 cannot be verified as accurate (confidence 2) [E83C7A2B], AccurateRip returned [B0AF6C69] (AR v2)Track 11 cannot be verified as accurate (confidence 2) [9AC8AE0F], AccurateRip returned [8111BF10] (AR v2)Track 12 cannot be verified as accurate (confidence 2) [FDDC8A2C], AccurateRip returned [324F01CF] (AR v2)
No tracks could be verified as accurateYou may have a different pressing from the one(s) in the database
End of status report
==== Log checksum 7DA764CBA052FE64D6559867E0C63880DEF09E5614CD6BEA3EB84B61308BDA4E ====


[geo-torrent.biz]_t_5370661.torrent
Torrent: Registered ·  [ 2017-03-25 10:54 ] ·  2c1f19e5f5f1000644d0a2702d3885ce73de487f

321 KB

Status: checked
Completed: 1 times
Size: 1.96 GB
Rating: 
(Votes: 1)
Say thanks: 1  Thanks   (list)
Похожие темы
[Profile]    [PM]

Guest

Post 25-May-2019 17:37 (after 2 years 2 months)

[Quote]

Станьте кто на раздачу
[Profile]    [PM]
Display posts from previous:    
Reply to topic

The time now is: Today 08:31

All times are GMT + 7 Hours



You cannot post new topics in this forum
You cannot reply to topics in this forum
You cannot edit your posts in this forum
You cannot delete your posts in this forum
You cannot vote in polls in this forum
You cannot attach files in this forum
You can download files in this forum