Человек-мотылек / The Mothman Prophecies (Марк Пеллингтон / Mark Pellington) [2002, США, мистика, триллер, драма, BDRip-AVC] Dub + MVO + AVO (Живов) + Original Eng + Sub (Rus, Eng)

Ответить на тему
Статистика раздачи [Обновить пиров]
Размер:  3.65 GB   |    Зарегистрирован:  1 год 5 месяцев   |    Скачан:  0 раз

Полного источника не было: Никогда

 
   
 
 
 
Автор Сообщение

torrentc.info

Создавать темы 14-Фев-2017 19:18

[Цитировать]

Человек-мотылек / The Mothman Prophecies- Страна: США
Жанр: мистика, триллер, драма
Год выхода: 2002
Продолжительность: 01:59:09
Перевод 1: Профессиональный (дублированный)
Перевод 2: Профессиональный (многоголосый закадровый) НТВ+
Перевод 3: Авторский (одноголосый закадровый) Юрий Живов
Cубтитры: русские, английские
Оригинальная аудиодорожка: английский
Режиссер: Марк Пеллингтон / Mark Pellington
В ролях: Ричард Гир, Дэвид Эйденберг, Боб Трэйси, Рон Эмануэл, Дебра Мессинг, Том Стовяк, Ивонн Эриксон, Скотт Нуннэлли, Харрис МакКензи, Уилл Пэттон
Описание: Спустя два года после трагической гибели жены талантливый журналист Джон Клайн оказывается в маленьком городке в Западной Вирджинии. Он не знает, как он попал сюда и что он здесь делает, но удивительные рассказы местных жителей, видевших странное существо, похожее на гигантского человека-мотылька, вынуждают его начать собственное расследование, которое дает совершенно неожиданные результаты: страшное создание с огненными глазами, внезапно являющееся людям в сумраке ночи, всегда становится предвестником чудовищных трагедий.
Оставляя людям свои жуткие пророчества, оно, кажется, хочет спасти их, но Клайн должен во что бы то ни стало выяснить истинные цели неуловимого призрака, ведь незадолго до своей смерти его жена тоже видела призрачную фигуру ужасного человека-мотылька...
Сэмпл: http://sendfile.su/1296058
[img]https://rating.kinopoisk.ru/759.gif[/img]
Качество видео: BDRip-AVC ([url=viewtopic.php?t=3907598]Человек-мотылек 2002 BDRemux 1080p[/url])
Формат файла: MKV
Видео: x264, 1016x432 (2.35:1), 23,976 fps, ~2852 kbps, 0.271 bit/pixel
Аудио: 48 kHz, AC3 Dolby Digital, 3/2 (L,C,R,l,r) + LFE ch, ~448 kbps | Дубляж
Аудио 2: 48 kHz, AC3 Dolby Digital, 2/0 (L,R) ch, ~192 kbps | НТВ+
---------------------------------------отдельно---------------------------------------------------
Аудио 3: 48 kHz, AC3 Dolby Digital, 3/2 (L,C,R,l,r) + LFE ch, ~448 kbps | Живов
Аудио 4: 48 kHz, AC3 Dolby Digital, 3/2 (L,C,R,l,r) + LFE ch, ~448 kbps | Английский
Формат файла субтитров: softsub (SRT)

MediaInfo

General
Unique ID : 194720877069770925030085429522029324501 (0x927DE0759C6BEA139026639BA9BBA8D5)
Format : Matroska
Format version : Version 4 / Version 2
File size : 2.91 GiB
Duration : 1h 59mn
Overall bit rate : 3 492 Kbps
Encoded date : UTC 2017-01-04 07:27:10
Writing application : mkvmerge v9.7.1 ('Pandemonium') 64bit
Writing library : libebml v1.3.4 + libmatroska v1.4.5
Video #1
ID : 1
Format : AVC
Format/Info : Advanced Video Codec
Format profile : High@L4.1
Format settings, CABAC : Yes
Format settings, ReFrames : 12 frames
Codec ID : V_MPEG4/ISO/AVC
Duration : 1h 59mn
Bit rate : 2 852 Kbps
Width : 1 016 pixels
Height : 432 pixels
Display aspect ratio : 2.35:1
Frame rate mode : Constant
Frame rate : 23.976 (24000/1001) fps
Color space : YUV
Chroma subsampling : 4:2:0
Bit depth : 8 bits
Scan type : Progressive
Bits/(Pixel*Frame) : 0.271
Stream size : 2.37 GiB (82%)
Writing library : x264 core 146 r2538 121396c
Encoding settings : cabac=1 / ref=12 / deblock=1:-3:-2 / analyse=0x3:0x113 / me=umh / subme=10 / psy=1 / psy_rd=1.00:0.00 / mixed_ref=1 / me_range=32 / chroma_me=1 / trellis=2 / 8x8dct=1 / cqm=0 / deadzone=21,11 / fast_pskip=1 / chroma_qp_offset=-2 / threads=6 / lookahead_threads=1 / sliced_threads=0 / nr=0 / decimate=1 / interlaced=0 / bluray_compat=0 / constrained_intra=0 / bframes=10 / b_pyramid=2 / b_adapt=2 / b_bias=0 / direct=1 / weightb=1 / open_gop=0 / weightp=2 / keyint=250 / keyint_min=23 / scenecut=40 / intra_refresh=0 / rc_lookahead=50 / rc=2pass / mbtree=1 / bitrate=2852 / ratetol=1.0 / qcomp=0.60 / qpmin=0 / qpmax=69 / qpstep=4 / cplxblur=20.0 / qblur=0.5 / ip_ratio=1.40 / aq=3:1.00
Language : English
Default : Yes
Forced : No
Audio #2
ID : 2
Format : AC-3
Format/Info : Audio Coding 3
Mode extension : CM (complete main)
Format settings, Endianness : Big
Codec ID : A_AC3
Duration : 1h 59mn
Bit rate mode : Constant
Bit rate : 448 Kbps
Channel(s) : 6 channels
Channel positions : Front: L C R, Side: L R, LFE
Sampling rate : 48.0 KHz
Frame rate : 31.250 fps (1536 spf)
Compression mode : Lossy
Stream size : 382 MiB (13%)
Title : дубляж
Language : Russian
Default : Yes
Forced : No
Audio #3
ID : 3
Format : AC-3
Format/Info : Audio Coding 3
Mode extension : CM (complete main)
Format settings, Endianness : Big
Codec ID : A_AC3
Duration : 1h 59mn
Bit rate mode : Constant
Bit rate : 192 Kbps
Channel(s) : 2 channels
Channel positions : Front: L R
Sampling rate : 48.0 KHz
Frame rate : 31.250 fps (1536 spf)
Compression mode : Lossy
Stream size : 164 MiB (5%)
Title : НТВ+
Language : Russian
Default : No
Forced : No
Text #4
ID : 4
Format : UTF-8
Codec ID : S_TEXT/UTF8
Codec ID/Info : UTF-8 Plain Text
Duration : 1h 52mn
Bit rate : 71 bps
Count of elements : 1045
Stream size : 58.7 KiB (0%)
Title : R5
Language : Russian
Default : No
Forced : No
Text #5
ID : 5
Format : UTF-8
Codec ID : S_TEXT/UTF8
Codec ID/Info : UTF-8 Plain Text
Duration : 1h 50mn
Bit rate : 36 bps
Count of elements : 982
Stream size : 29.9 KiB (0%)
Language : English
Default : No
Forced : No

лог

raw [info]: 1016x432p 1:1 @ 24000/1001 fps (cfr)
x264 [info]: using SAR=1/1
x264 [info]: using cpu capabilities: MMX2 SSE2Fast SSSE3 SSE4.2 AVX XOP FMA4 FMA3 LZCNT BMI1
x264 [info]: profile High, level 4.1
x264 [info]: frame I:1150 Avg QP:16.11 size: 70177
x264 [info]: frame P:35187 Avg QP:19.63 size: 26674
x264 [info]: frame B:135080 Avg QP:21.61 size: 11312
x264 [info]: consecutive B-frames: 2.1% 2.8% 6.3% 12.8% 14.8% 43.6% 7.1% 1.5% 3.8% 3.1% 2.0%
x264 [info]: mb I I16..4: 6.3% 79.2% 14.5%
x264 [info]: mb P I16..4: 1.0% 12.2% 1.0% P16..4: 34.3% 27.9% 15.9% 0.0% 0.0% skip: 7.7%
x264 [info]: mb B I16..4: 0.0% 1.8% 0.1% B16..8: 43.2% 14.5% 5.2% direct: 7.1% skip:28.2% L0:46.7% L1:45.7% BI: 7.6%
x264 [info]: 8x8 transform intra:87.1% inter:63.5%
x264 [info]: coded y,uvDC,uvAC intra: 91.6% 74.8% 35.6% inter: 38.4% 22.8% 1.2%
x264 [info]: i16 v,h,dc,p: 40% 18% 9% 33%
x264 [info]: i8 v,h,dc,ddl,ddr,vr,hd,vl,hu: 7% 8% 10% 11% 15% 14% 13% 11% 12%
x264 [info]: i4 v,h,dc,ddl,ddr,vr,hd,vl,hu: 8% 9% 4% 10% 16% 15% 14% 11% 13%
x264 [info]: i8c dc,h,v,p: 38% 27% 19% 16%
x264 [info]: Weighted P-Frames: Y:5.3% UV:2.7%
x264 [info]: ref P L0: 41.4% 10.9% 18.3% 7.1% 6.1% 4.1% 3.8% 1.9% 1.9% 1.5% 1.5% 1.3% 0.2% 0.0%
x264 [info]: ref B L0: 64.0% 13.7% 7.5% 4.1% 3.0% 2.5% 2.0% 1.2% 1.0% 0.6% 0.2%
x264 [info]: ref B L1: 90.8% 9.2%
x264 [info]: kb/s:2850.32
x264 [total]: encoded 171417 frames, 8.03 fps, 2850.32 kb/s

Скриншоты




[torrentc.info]_torrent-5336036.torrent
Торрент: Зарегистрирован ·  [ 2017-02-14 19:18 ] ·  2146211c71ce3d6f23d4bee716bcf17ccd30d529

19 KB

Статус: проверено
Скачан: 0 раз
Размер: 3.65 GB
Оценка: 
(Голосов: 0)
Сказали спасибо: 0  Спасибо
Похожие темы
[Профиль]    [ЛС]
Показать сообщения:    
Ответить на тему

Текущее время: Сегодня 01:31

Часовой пояс: GMT + 7



Вы не можете начинать темы
Вы не можете отвечать на сообщения
Вы не можете редактировать свои сообщения
Вы не можете удалять свои сообщения
Вы не можете голосовать в опросах
Вы не можете прикреплять файлы к сообщениям
Вы можете скачивать файлы