Они поженились и у них было много детей / Ils se marierent et eurent beaucoup d\'enfants / Ils se marièrent et eurent beaucoup d\'enfa (Иван Атталь / Yvan Attal) [2004, Франция, Комедия, Мелодрама, DVDRip] MVO (Кинопоказ) + Original Fre

Ответить на тему
Статистика раздачи [Обновить пиров]
Размер:  1.46 GB   |    Зарегистрирован:  1 год 5 месяцев   |    Скачан:  0 раз

Полного источника не было: Никогда

 
   
 
 
 
Автор Сообщение

torrentc.info

Создавать темы 14-Фев-2017 19:18

[Цитировать]

Они поженились и у них было много детей / Ils se marierent et eurent beaucoup d'enfants / Ils se marièrent et eurent beaucoup d'enfa
Страна: Франция
Жанр: Комедия, Мелодрама
Год выхода: 2004
Продолжительность: 01:40:06
Перевод: Профессиональный (многоголосый закадровый) Кинопоказ
Cубтитры: нет
Оригинальная аудиодорожка: французский
Режиссер: Иван Атталь / Yvan Attal
В ролях: Шарлотта Гейнсбург, Иван Атталь, Ален Шаба, Анук Эме, Клод Берри, Джонни Депп
Описание: История наших дней, где двое женатых мужчин завидуют холостяку, который, в свою очередь, завидует женатым... И, конечно же, их женщины тоже ищут ответы на свои собственные вопросы.
Доп.информация: В видео сделана одна вставка 16:9 в формате Pillarbox - в версии 2,35:1 этот кусок почему то вырезали.
Сэмпл: http://multi-up.com/1134365
Качество видео: DVDRip
Формат файла: AVI
Видео: MPEG4, XviD, 704x304 (2.35:1), 25.000 fps, 1 427 Kbps (0.267 bit/pixel)
Аудио: AC-3, 48.0 KHz, 2 ch, 192 Kbps, CBR - русский
Аудио 2: AC-3, 48.0 KHz, 6 ch, 448 Kbps, CBR - французский

MediaInfo

Общее
Полное имя : M:\Они поженились, и у них было много детей.avi
Формат файла : AVI
Формат файла/Информация : Audio Video Interleave
Размер файла : 1,46 Гбайт
Продолжительность : 1 ч. 40 м.
Общий поток : 2081 Кбит/сек
Название фильма : Они поженились, и у них было много детей / Ils se marierent et eurent beaucoup d'enfants (2004)
Программа кодирования : VirtualDubMod 1.5.10.2 (build 2540/release)
Библиотека кодирования : VirtualDubMod build 2540/release
Авторское право : miha2154
Видео
Идентификатор : 0
Формат файла : MPEG-4 Visual
Профиль формата : Advanced Simple@L5
Параметр BVOP формата : 1
Параметр QPel формата : Нет
Параметр GMC формата : Без точки перехода
Параметр матрицы формата : Выборочная
Идентификатор кодека : XVID
Идентификатор кодека/Подсказка : XviD
Продолжительность : 1 ч. 40 м.
Битрейт : 1427 Кбит/сек
Ширина : 704 пикселя
Высота : 304 пикселя
Соотношение сторон : 2,35:1
Частота кадров : 25,000 кадров/сек
Цветовое пространство : YUV
Субдискретизация насыщенности : 4:2:0
Битовая глубина : 8 бит
Тип развёртки : Прогрессивная
Метод сжатия : С потерями
Бит/(Пиксели*Кадры) : 0.267
Размер потока : 1022 Мбайт (69%)
Библиотека кодирования : XviD 65
Аудио #1
Идентификатор : 1
Формат файла : AC-3
Формат файла/Информация : Audio Coding 3
Расширение режима : CM (complete main)
Параметр Endianness формата : Big
Идентификатор кодека : 2000
Продолжительность : 1 ч. 40 м.
Вид битрейта : Постоянный
Битрейт : 192 Кбит/сек
Каналы : 2 канала
Расположение каналов : Front: L R
Частота : 48,0 КГц
Частота кадров : 31,250 кадров/сек (1536 spf)
Метод сжатия : С потерями
Размер потока : 137 Мбайт (9%)
Выравнивание : Разделение по промежуткам
Продолжительность промежутка : 40 мс. (1,00 видеокадр)
Время предзагрузки промежутка : 500 мс.
Заголовок : Профессиональный (многоголосый закадровый) Кинопоказ
Аудио #2
Идентификатор : 2
Формат файла : AC-3
Формат файла/Информация : Audio Coding 3
Расширение режима : CM (complete main)
Параметр Endianness формата : Big
Идентификатор кодека : 2000
Продолжительность : 1 ч. 40 м.
Вид битрейта : Постоянный
Битрейт : 448 Кбит/сек
Каналы : 6 каналов
Расположение каналов : Front: L C R, Side: L R, LFE
Частота : 48,0 КГц
Частота кадров : 31,250 кадров/сек (1536 spf)
Метод сжатия : С потерями
Размер потока : 321 Мбайт (22%)
Выравнивание : Разделение по промежуткам
Продолжительность промежутка : 40 мс. (1,00 видеокадр)
Время предзагрузки промежутка : 500 мс.
Заголовок : Французский

Скриншоты


Торрент перезалит 6.01.17 - заменен видеоряд обрезок 16:9 на полный 2,35:1


[torrentc.info]_torrent-5194352.torrent
Торрент: Зарегистрирован ·  [ 2017-02-14 19:18 ] ·  62cdf8aeafdf83fe04623820f66d4529b34a93d6

15 KB

Статус: проверено
Скачан: 0 раз
Размер: 1.46 GB
Оценка: 
(Голосов: 0)
Сказали спасибо: 0  Спасибо
Похожие темы
[Профиль]    [ЛС]
Показать сообщения:    
Ответить на тему

Текущее время: Сегодня 12:13

Часовой пояс: GMT + 7



Вы не можете начинать темы
Вы не можете отвечать на сообщения
Вы не можете редактировать свои сообщения
Вы не можете удалять свои сообщения
Вы не можете голосовать в опросах
Вы не можете прикреплять файлы к сообщениям
Вы можете скачивать файлы