Айк: обратный отсчет / Ike: Countdown to D-Day (Роберт Хэрмон / Robert Harmon) [2004, США, Новая Зеландия, Боевик, драма, приключения, военный, WEB-DLRip] AVO (Гранкин)

Ответить на тему
Статистика раздачи [Обновить пиров]
Размер:  1.46 GB   |    Зарегистрирован:  1 год 9 месяцев   |    Скачан:  0 раз

Полного источника не было: Никогда

 
   
 
 
 
Автор Сообщение

torrentc.info

Создавать темы 14-Фев-2017 19:18

[Цитировать]

Айк: обратный отсчет / Ike: Countdown to D-Day
Страна: США, Новая Зеландия
Жанр: Боевик, драма, приключения, военный
Год выхода: 2004
Продолжительность: 01:25:00
Перевод: Авторский (одноголосый закадровый) - Евгений Гранкин
Cубтитры: нет
Оригинальная аудиодорожка: нет-Режиссер: Роберт Хэрмон / Robert Harmon-В ролях: Том Селлек, Джеймс Римар, Тимоти Боттомс, Йен Мун, Брюс Филлипс, Джон Бах, Ник Блейк, Кевин Дж. Уилсон, Джералд МакРэйни, Кристофер Джеймс Бэйкер-Описание: Хроника 90 дней из жизни президента США Дуайта Эйзенхауэра в период выполнения одной из наиболее знаменитых в истории США военных операций. Операция под кодовым названием «D-Day» проводилась армией США 6 июня 1944 года - это день высадки союзников и открытие второго фронта...-Качество видео: [url=viewtopic.php?t=5337596]WEB-DLRip[/url]
Формат файла: AVI
Видео: 720x400 (1.80:1), 25 fps, XviD build 73 ~2257 kbps avg, 0.31 bit/pixel
Аудио: 48 kHz, AC3 Dolby Digital, 2/0 (L,R) ch, ~192 kbps-Сэмпл-

Источник: Torrentc.org

[url=viewtopic.php?t=1962112]http://Torrentc.org/forum/viewtopic.php?t=1962112[/url]
29.97fps

MediaInfo

Format                      : AVI
Format/Info                 : Audio Video Interleave
File size                   : 1.46 GiB
Duration                    : 1 h 25 min
Overall bit rate            : 2 459 kb/s
Writing application         : VirtualDubMod 1.5.10.3 | www.virtualdub-fr.org || (build 2550/release)
Writing library             : VirtualDubMod build 2550/release
Video
ID                          : 0
Format                      : MPEG-4 Visual
Format profile              : Advanced Simple@L5
Format settings, BVOP       : 1
Format settings, QPel       : No
Format settings, GMC        : No warppoints
Format settings, Matrix     : Custom
Codec ID                    : XVID
Codec ID/Hint               : XviD
Duration                    : 1 h 25 min
Bit rate                    : 2 257 kb/s
Width                       : 720 pixels
Height                      : 400 pixels
Display aspect ratio        : 16:9
Frame rate                  : 25.000 FPS
Color space                 : YUV
Chroma subsampling          : 4:2:0
Bit depth                   : 8 bits
Scan type                   : Progressive
Compression mode            : Lossy
Bits/(Pixel*Frame)          : 0.314
Stream size                 : 1.34 GiB (92%)
Writing library             : XviD 73
Audio
ID                          : 1
Format                      : AC-3
Format/Info                 : Audio Coding 3
Mode extension              : CM (complete main)
Format settings, Endianness : Big
Codec ID                    : 2000
Duration                    : 1 h 25 min
Bit rate mode               : Constant
Bit rate                    : 192 kb/s
Channel(s)                  : 2 channels
Channel positions           : Front: L R
Sampling rate               : 48.0 kHz
Frame rate                  : 31.250 FPS (1536 spf)
Bit depth                   : 16 bits
Compression mode            : Lossy
Stream size                 : 117 MiB (8%)
Alignment                   : Split accross interleaves
Interleave, duration        : 40  ms (1.00 video frame)
Interleave, preload duratio : 500  ms

Скриншоты



[torrentc.info]_torrent-5337812.torrent
Торрент: Зарегистрирован ·  [ 2017-02-14 19:18 ] ·  e8742ce3723f85cf6049be0938f14045f510db02

15 KB

Статус: проверено
Скачан: 0 раз
Размер: 1.46 GB
Оценка: 
(Голосов: 0)
Сказали спасибо: 0  Спасибо
Похожие темы
[Профиль]    [ЛС]
Показать сообщения:    
Ответить на тему

Текущее время: Сегодня 07:01

Часовой пояс: GMT + 7



Вы не можете начинать темы
Вы не можете отвечать на сообщения
Вы не можете редактировать свои сообщения
Вы не можете удалять свои сообщения
Вы не можете голосовать в опросах
Вы не можете прикреплять файлы к сообщениям
Вы можете скачивать файлы