28 дней спустя / 28 Days Later (Дэнни Бойл / Danny Boyle) [2002, Великобритания, ужасы, фантастика, триллер, HDRip] Dub + 2xMVO (Позитив, Киномания) + Original (eng) + Sub (Rus, Eng)

Ответить на тему
Статистика раздачи [Обновить пиров]
Размер:  2.47 GB   |    Зарегистрирован:  1 год 8 месяцев   |    Скачан:  0 раз

Полного источника не было: Никогда

 
   
 
 
 
Автор Сообщение

torrentc.info

Создавать темы 14-Фев-2017 19:18

[Цитировать]

28 дней спустя / 28 Days Later...«Твои дни сочтены!» Страна: Великобритания
Жанр: ужасы, фантастика, триллер, драма
Год выхода: 2002
Продолжительность: 01:53:07
Перевод: Профессиональный (полное дублирование)
Cубтитры: Русские (полные), Английские (полные)
Оригинальная аудиодорожка: Английский
Режиссер: Дэнни Бойл / Danny Boyle
В ролях: Силлиан Мерфи, Наоми Харрис, Ноа Хантли, Кристофер Данн, Эмма Хичинг, Александер Деламер, Ким МакГэррити, Брендан Глисон, Меган Бернс
Описание: Группа «зеленых» экстремистов вторгается в центр исследования приматов и выпускает из секретной научной лаборатории обезьяну, зараженную вирусом неудержимой агрессии. Смертельный вирус, передающийся через кровь за считанные секунды, приводит к мгновенному заражению и, соприкасаясь с любым живым существом, превращает его в кровожадного монстра. Через 4 недели вся Англия охвачена страшной эпидемией: многие люди эвакуируются, другие ищут безопасные места, в надежде спастись. Те, кому посчастливилось не заразиться, вместе с группой военных прячутся в заброшенном доме. Вместе им предстоит разобраться в ситуации и попытаться ее исправить…
Сэмпл: http://multi-up.com/1134629
Качество видео: HDRip
Источник: Torrentc.org: BDRip (1080p)
Формат файла: AVI
Видео: 720x384 (1.88:1), 23.976 fps, XviD build 65 ~1390 kbps avg, 0.21 bit/pixel
Аудио #1: 48 kHz, AC3 Dolby Digital, 3/2 (L,C,R,l,r) + LFE ch, ~448 kbps - Дубляж
Аудио #2: 48 kHz, AC3 Dolby Digital, 3/2 (L,C,R,l,r) + LFE ch, ~384 kbps - Киномания - отдельно
Аудио #3: 48 kHz, AC3 Dolby Digital, 3/2 (L,C,R,l,r) + LFE ch, ~448 kbps - Позитив - отдельно
Аудио #4: 48 kHz, AC3 Dolby Digital, 3/2 (L,C,R,l,r) + LFE ch, ~448 kbps - Оригинал - отдельно
Формат файла субтитров: softsub (SRT)
Rip by Ториял для

MediaInfo

General
Complete name : D:\Фильмы\28 Days Later_2002_Toriyal_Torrentc.org\28 Days Later_2002_Toriyal_Torrentc.org.avi
Format : AVI
Format/Info : Audio Video Interleave
File size : 1.46 GiB
Duration : 1h 53mn
Overall bit rate : 1 848 Kbps
Writing application : VirtualDubMod 1.5.10.3 | www.virtualdub-fr.org || (build 2550/release)
Writing library : VirtualDubMod build 2550/release
Video
ID : 0
Format : MPEG-4 Visual
Format profile : Advanced Simple@L5
Format settings, BVOP : 1
Format settings, QPel : No
Format settings, GMC : No warppoints
Format settings, Matrix : Custom
Codec ID : XVID
Codec ID/Hint : XviD
Duration : 1h 53mn
Bit rate : 1 390 Kbps
Width : 720 pixels
Height : 384 pixels
Display aspect ratio : 1.85:1
Frame rate : 23.976 (23976/1000) fps
Color space : YUV
Chroma subsampling : 4:2:0
Bit depth : 8 bits
Scan type : Progressive
Compression mode : Lossy
Bits/(Pixel*Frame) : 0.210
Stream size : 1.10 GiB (75%)
Writing library : XviD 65
Audio
ID : 1
Format : AC-3
Format/Info : Audio Coding 3
Mode extension : CM (complete main)
Format settings, Endianness : Big
Codec ID : 2000
Duration : 1h 53mn
Bit rate mode : Constant
Bit rate : 448 Kbps
Channel(s) : 6 channels
Channel positions : Front: L C R, Side: L R, LFE
Sampling rate : 48.0 KHz
Frame rate : 31.250 fps (1536 spf)
Compression mode : Lossy
Stream size : 362 MiB (24%)
Alignment : Split accross interleaves
Interleave, duration : 42 ms (1.00 video frame)
Interleave, preload duratio : 500 ms

Скриншоты

Цитата:Бóльшая часть фильма (105 минут) снята на MiniDV-камеру Canon XL1S→ (хоть и с довольно хитрой навесной оптикой) — для большей аутентичности (по той же причине Бойл набрал практически безызвестных актёров). Поэтому практически весь BD-трансфер является, по сути, качественным студийным апскейлом


[torrentc.info]_torrent-5337947.torrent
Торрент: Зарегистрирован ·  [ 2017-02-14 19:18 ] ·  21860aeec3da9d778a433b935629b380be944899

13 KB

Статус: проверено
Скачан: 0 раз
Размер: 2.47 GB
Оценка: 
(Голосов: 0)
Сказали спасибо: 0  Спасибо
Похожие темы
[Профиль]    [ЛС]
Показать сообщения:    
Ответить на тему

Текущее время: Сегодня 12:47

Часовой пояс: GMT + 7



Вы не можете начинать темы
Вы не можете отвечать на сообщения
Вы не можете редактировать свои сообщения
Вы не можете удалять свои сообщения
Вы не можете голосовать в опросах
Вы не можете прикреплять файлы к сообщениям
Вы можете скачивать файлы