Скуби-Ду Шоу / The Scooby-Doo Show / Сезон: 1 / Серии: 1 - 16 из 16 / Сезон: 2 / Серии: 1 - 8 из 8 / Сезон: 3 / Серии: 1 - 16 из 16 (Джозеф Барбера, Уильям Ханна / Joseph Barbera, William Hanna) [1976-1978, Приключение, Комедия, DVB] Dub

Ответить на тему
Статистика раздачи [Обновить пиров]
Размер:  18.61 GB   |    Зарегистрирован:  1 год 2 месяца   |    Скачан:  0 раз

Полного источника не было: Никогда

Личеров:  1  [  0 KB/s  ]   Подробная статистика скачивающих
 
   
 
 
 
Автор Сообщение

torrentc.info

Создавать темы 12-Мар-2017 13:00

[Цитировать]

Скуби-Ду Шоу / The Scooby-Doo Show
Страна: США
Жанр: Приключение, Комедия
Продолжительность: 00:22:00
Год выхода: 1976-1978
Перевод: Профессиональный (дублированный)
Русские субтитры: нет
Режиссёр: Джозеф Барбера, Уильям Ханна / Joseph Barbera, William Hanna
Описание: Сюжет мультипликационного сериала «Скуби-Ду Шоу»: главный герой бездомный пес по кличке Скуби — Ду, наконец-то, случайно знакомится с парнем по имени Шегги, который является таким же «отморозком», как и сам Скуби — Ду. А вот тут и начинаются самые невероятные приключения этой парочки. Вы готовы увидеть кучу существ не из нашего мира? Скуби распознает их на раз! И лучше с ними не связываться, потому что, ни к чему хорошему это не приведет и даже верные друзья не будут в силе тебе помочь…

Список серий:

Season 1
s1e01 - High Rise Hair Raiser (Крутой подъем,высокий рельеф)
s1e02 - The Fiesta Host Is an Aztec Ghost (Праздник хозяина привидения Ацтеков)
s1e03 - The Gruesome Game of the Gator Ghoul (Жуткая игра Гейтера Гоула)
s1e04 - Watt A Shocking Ghost (Страшное привидение)
s1e05 - The Headless Horseman of Halloween (Обезглавленный наездник в Хеллоуин)
s1e06 - Scared a Lot in Camelot (Страшный жребий Камелота)
s1e07 - The Harum Scarum Sanitarium (Санаторий Харум Скарум)
s1e08 - The No-Faced Zombie Chase Case (Безликий Зомби с ворованным кейсом)
s1e09 - Mamba Wamba and the Voodoo Hoodoo (Мамба Вамба и Вуду Худу)
s1e10 - The Frightened Hound Meets Demons Underground (Тревожные гончие или знакомство с подземным демоном)
s1e11 - A Bum Steer for Scooby (Бродяго Скуби)
s1e12 - There's a Demon Shark in the Foggy Dark (Акула-демон в туманной мгле)
s1e13 - Scooby-Doo, Where's the Crew.. (Скуби-Ду где твой экипаж)
s1e14 - The Ghost that Sacked the Quarterback (Призрак умершего квартебека)
s1e15 - The Ghost of the Bad Humor Man (Призрак плохого юмориста)
s1e16 - The Spirits of '76 (Духи номера 76)
Season 2
s2e01 - The Curse of Viking Lake (Проклятие озера Викингов)
s2e02 - Vampries, Bats, and Scaredycats (Вампиры, летучие мыши и закалдованые коты)
s2e03 - Hang in There, Scooby Doo (Главенствуй Скуби-Ду)
s2e04 - The Chiller Diller Movie Thriller (Леденящий душу триллер)
s2e05 - The Spooky Case of the Grand Prix Race (Страшный случай произошелший на больших гонках)
s2e06 - The Ozark Witch Switch (Ведьма меняющая обличия)
s2e07 - Creepy Cruise (Странный круиз)
s2e08 - The Creepy Heap From the Deep (Страшная нечисть из бездны)
Season 3
s3e01 - Watch Out! The Willawaw! (Осторожно, волны)
s3e02 - A Creepy Tangle in the Bermuda Triangle (Страшная загадка Бермудского треугольника)
s3e03 - A Scary Night With a Snow Beast Fright (Ужасная ночь снежного монстра)
s3e04 - To Switch a Witch (Ведьма)
s3e05 - The Tar Monster (Смольный монстр)
s3e06 - A Highland Fling With a Monstrous Thing (Высокогорный полет над ущельем чудовищ)
s3e07 - The Creepy Case Of Old Iron Face (Страшный случай с Железным Лицом)
s3e08 - Jeepers, It's the Jaguaro (Ого! Это же Джагуаро)
s3e09 - Make A Beeline Away From That Feline (Выбери легкий путь из кошачьего логова)
s3e10 - The Creepy Creature of Vulture's Claws (Странное создание)
s3e11 - The Diabolical Disc Demon (Когти грифа)
s3e12 - Scooby's Chinese Fortune Kooky Caper (Судьба Скуби внутри китайского печенья)
s3e13 - A Menace in Venice (Угроза в Винеции)
s3e14 - Don't Go Near the Fortress of Fear (Не подходи близко к Крепости Страха)
s3e15 - The Warlock of Wimbledon (Уорлок Уимбилдона)
s3e16 - The Beast Is Awake In Bottomless Lake (Чудовище озера Ботомлес)
[url=tracker.php?f=1991&nm=The+Scooby-Doo+Show]Ссылка на предыдущие и альтернативные раздачи[/url]

Качество: DVB
Формат файла: mpg
Видео: MPEG2 Video 720x576 (4:3) 25.00fps 2 885 Kbps
Аудио: MPEG Audio 48000Hz stereo 192kbps
Субтитры: отсутствуют

Подробные технические данные

GeneralComplete name : C:\The Scooby-Doo Show\Season 1\S 01 Ep 01 High Rise Hair Raiser .mpgFormat : MPEG-PSFile size : 522 MiBDuration : 23mn 14sOverall bit rate mode : VariableOverall bit rate : 3 140 Kbps
VideoID : 224 (0xE0)Format : MPEG VideoFormat version : Version 2Format profile : Main@MainFormat settings, BVOP : YesFormat settings, Matrix : CustomFormat settings, GOP : M=3, N=9Duration : 23mn 13sBit rate mode : VariableBit rate : 2 885 KbpsMaximum bit rate : 15.0 MbpsWidth : 720 pixelsHeight : 576 pixelsDisplay aspect ratio : 4:3Frame rate : 25.000 fpsStandard : PALColor space : YUVChroma subsampling : 4:2:0Bit depth : 8 bitsScan type : InterlacedScan order : Top Field FirstCompression mode : LossyBits/(Pixel*Frame) : 0.278Stream size : 479 MiB (92%)
AudioID : 192 (0xC0)Format : MPEG AudioFormat version : Version 1Format profile : Layer 2Duration : 23mn 14sBit rate mode : ConstantBit rate : 192 KbpsChannel(s) : 2 channelsSampling rate : 48.0 KHzCompression mode : LossyDelay relative to video : 9msStream size : 31.9 MiB (6%)

Скриншоты



[torrentc.info]_t_4071223.torrent
Торрент: Зарегистрирован ·  [ 2017-03-12 13:00 ] ·  1479e7e4639aa0357b6cdb3b6b0b5291907c1f87

97 KB

Статус: проверено
Скачан: 0 раз
Размер: 18.61 GB
Оценка: 
(Голосов: 0)
Сказали спасибо: 0  Спасибо
Похожие темы
[Профиль]    [ЛС]
Показать сообщения:    
Ответить на тему

Текущее время: Сегодня 13:27

Часовой пояс: GMT + 7



Вы не можете начинать темы
Вы не можете отвечать на сообщения
Вы не можете редактировать свои сообщения
Вы не можете удалять свои сообщения
Вы не можете голосовать в опросах
Вы не можете прикреплять файлы к сообщениям
Вы можете скачивать файлы