Щенок по кличке Скуби-Ду / A Pup Named Scooby-Doo / Сезон: 3 / Серии: 1-9 (Дон Ласк, Карл Урбано / Don Lusk, Carl Urbano) [1990-1991, Мульфильм, комедия, DVDRip] DVO (JuiceTime, Джокер)

Ответить на тему
Статистика раздачи [Обновить пиров]
Размер:  1.66 GB   |    Зарегистрирован:  1 год 5 месяцев   |    Скачан:  0 раз

Полного источника не было: Никогда

 
   
 
 
 
Автор Сообщение

torrentc.info

Создавать темы 12-Мар-2017 13:00

[Цитировать]

Щенок по кличке Скуби-Ду / A Pup Named Scooby-Doo
Страна: США
Жанр: Мульфильм, комедия
Продолжительность: ~00:12:00
Год выхода: 1990-1991
Перевод: Любительский (двухголосый закадровый) [JuiceTime, Джокер]
Русские субтитры: нет
Режиссёр: Дон Ласк, Карл Урбано / Don Lusk, Carl Urbano
Роли озвучивали: SPtrue, kir4ik88
Перевод текста: Parafonix
Описание: Когда Шэгги, Дафна, Велма и Фред еще ходили пешком под стол, а Скуби-Ду был размером с банку варенья, друзья уже проводили головокружительные расследования.
Список серий:
1. Ночь Буги Байкера / Night of the Boogey Biker
2. Жуткий призрак космического корабля / Dawn of the Spooky Shuttle Scare
3. Призрак на ринге / Wrestle Maniacs
4. Ужасный призрак парика / Horror of the Haunted Hairpiece
5. Нападение гигантской улитки / Mayhem of the Moving Mollusk
6. Оборотень в усадьбе Ду / The Were-Doo of Doo Manor
7. Ловец и Хитрец / Catcher on the Sly
8. Призрак Миссис Шушам / The Ghost of Mrs. Shusham
9. Гнев Вейтро / The Wrath of Waitro
[url=tracker.php?f=1991&nm=A+Pup+Named+Scooby-Doo]Ссылка на предыдущие и альтернативные раздачи[/url]
Сэмпл
Качество: DVDRip
Формат файла: AVI
Видео: XviD, 672x512 (1.31:1), 23.976 fps, 1499 kbps
Аудио: MP3, 44100 Hz, 2 ch, 192 kbps [русский, JuiceTime, Джокер]
Субтитры: отсутствуют

Подробные технические данные

ОбщееПолное имя : XXX\A Pup Named Scooby-Doo [JuiceTime, Джокер]\0301 - A Pup Named Scooby-Doo [JuiceTime, Джокер].aviФормат файла : AVIФормат файла/Информация : Audio Video InterleaveРазмер файла : 145 МбайтПродолжительность : 11 м.Общий поток : 1701 Кбит/секПрограмма кодирования : VirtualDubMod 1.5.10.2 (build 2540/release)Библиотека кодирования : VirtualDubMod build 2540/release
ВидеоИдентификатор : 0Формат файла : MPEG-4 VisualПрофиль формата : Advanced Simple@L5Параметр BVOP формата : 1Параметр QPel формата : НетПараметр GMC формата : Без точки переходаПараметр матрицы формата : Default (MPEG)Идентификатор кодека : XVIDИдентификатор кодека/Подсказка : XviDПродолжительность : 11 м.Битрейт : 1500 Кбит/секШирина : 672 пикселяВысота : 512 пикселейСоотношение сторон : 4:3Частота кадров : 23,976 кадра/секЦветовое пространство : YUVСубдискретизация насыщенности : 4:2:0Битовая глубина : 8 битТип развёртки : ПрогрессивнаяМетод сжатия : С потерямиБит/(Пиксели*Кадры) : 0.182Размер потока : 128 Мбайт (88%)Библиотека кодирования : XviD 1.2.1 (UTC 2008-12-04)
АудиоИдентификатор : 1Формат файла : MPEG AudioВерсия формата : Version 1Профиль формата : Layer 3Идентификатор кодека : 55Идентификатор кодека/Подсказка : MP3Продолжительность : 11 м.Вид битрейта : ПостоянныйБитрейт : 192 Кбит/секКаналы : 2 каналаЧастота : 44,1 КГцМетод сжатия : С потерямиРазмер потока : 16,4 Мбайт (11%)Выравнивание : Разделение по промежуткамПродолжительность промежутка : 42 мс. (1,00 видеокадр)Время предзагрузки промежутка : 500 мс.

Скриншоты



[torrentc.info]_t_4187118.torrent
Торрент: Зарегистрирован ·  [ 2017-03-12 13:00 ] ·  928ebb77aa42b39dcb476df439b811be9c565985

18 KB

Статус: проверено
Скачан: 0 раз
Размер: 1.66 GB
Оценка: 
(Голосов: 0)
Сказали спасибо: 0  Спасибо
Похожие темы
[Профиль]    [ЛС]
Показать сообщения:    
Ответить на тему

Текущее время: Сегодня 00:15

Часовой пояс: GMT + 7



Вы не можете начинать темы
Вы не можете отвечать на сообщения
Вы не можете редактировать свои сообщения
Вы не можете удалять свои сообщения
Вы не можете голосовать в опросах
Вы не можете прикреплять файлы к сообщениям
Вы можете скачивать файлы