Шоу Скуби-Ду / The Scooby-Doo Show / Сезон: 1,2,3 / Серии: 06,21,37 из 40 (Джозеф Барбера, Уильям Ханна / Joseph Barbera, William Hanna) [1976-1978, Приключения, VHSRip] DUB (EA)

Ответить на тему
Статистика раздачи [Обновить пиров]
Размер:  5.12 GB   |    Зарегистрирован:  1 год 7 месяцев   |    Скачан:  0 раз

Полного источника не было: Никогда

Личеров:  1  [  0 KB/s  ]   Подробная статистика скачивающих
 
   
 
 
 
Автор Сообщение

torrentc.info

Создавать темы 12-Мар-2017 13:00

[Цитировать]

-Шоу Скуби-Ду / The Scooby-Doo Show- Английское название: The Scooby-Doo Show
Русское название: Шоу Скуби-Ду
Год выхода: 1976-1978
Страна: США.
Жанр: Приключения.
Продолжительность: ТВ (40 эп.), ~ 23 минуты
Перевод: Профессиональный (Полное Дублирование) EA (Екатеринбург Арт)
Субтитры: Нет-Режиссёр: Джозеф Барбера, Уильям Ханна / Joseph Barbera, William Hanna
Описание: Сюжет мультипликационного сериала «Шоу Скуби-Ду»: главный герой бездомный пес по кличке Скуби-Ду, наконец-то, случайно знакомится с парнем по имени Шегги, который является таким же «отморозком», как и сам Скуби-Ду. А вот тут и начинаются самые невероятные приключения этой парочки. Вы готовы увидеть кучу существ не из нашего мира? Скуби распознает их на раз! И лучше с ними не связываться, потому что, ни к чему хорошему это не приведёт и даже верные друзья не будут в силе тебе помочь…-: ALEKS KV-Над релизом работали:
ALEKS KV .......Предоставил кассеты, оцифровка
[url=tracker.php?nm=The%20Scooby-Doo%20Show]Ссылка на остальные раздачи[/url]
Доп. Информация:
В релизе, оцифровка кассеты "Скуби Ду Гонки "Гран-При"" выпущенной компанией - "Екатеринбург Арт Home Video". Оцифровки имеет Hi-Fi Stereo звук!

Обложка Кассеты

Сэмпл
Качество: VHSRip
Формат файла: MPEG2
Формат файла: MPG
Аудио кодек: AC3
Видео: MPEG2 Video 720x576 (4:3) 25.00fps 9500Kbps
Аудио:
  • русская: Dolby AC3 48000Hz stereo 256Kbps [Дубляж ЕА]

-

Наличие серий в раздаче

Сезон 1
01. High Rise Hair Raiser
02. The Fiesta Host Is an Aztec Ghost
03. The Gruesome Game of the Gator Ghoul
04. Watt A Shocking Ghost
05. The Headless Horseman of Halloween

06. Перепуганный в Камелоте
07. The Harum Scarum Sanitarium
08. The No-Faced Zombie Chase Case
09. Mamba Wamba and the Voodoo Hoodoo
10. The Frightened Hound Meets Demons Underground
11. A Bum Steer for Scooby
12. There's a Demon Shark in the Foggy Dark
13. Scooby-Doo, Where's the Crew..
14. The Ghost that Sacked the Quarterback
15. The Ghost of the Bad Humor Man
16. The Spirits of '76

Сезон 2
17. The Curse of Viking Lake
18. Vampries, Bats, and Scaredycats
19. Hang in There, Scooby Doo
20. The Chiller Diller Movie Thriller

21. Гонки "Гран-При"
22. The Ozark Witch Switch
23. Creepy Cruise
24. The Creepy Heap From the Deep

Сезон 3
25. Watch Out! The Willawaw!
26. A Creepy Tangle in the Bermuda Triangle
27. A Scary Night With a Snow Beast Fright
28. To Switch a Witch
29. The Tar Monster
30. A Highland Fling With a Monstrous Thing
31. The Creepy Case Of Old Iron Face
32. Jeepers, It's the Jaguaro
33. Make A Beeline Away From That Feline
34. The Creepy Creature of Vulture's Claws
35. The Diabolical Disc Demon
36. Scooby's Chinese Fortune Kooky Caper

37. Угроза в Венеции
38. Don't Go Near the Fortress of Fear
39. The Warlock of Wimbledon
40. The Beast Is Awake In Bottomless Lake

Расположение серий в файле

21. Гонки "Гран-При"
06. Перепуганный в Камелоте
37. Угроза в Венеции

Подробные технические данные

[pre]General
General
Complete name : X:\XXXXXXXXX\Скуби-Ду [Гонки ''Гран-При''] {Hi-Fi}.mpg
Format : MPEG-PS
File size : 5.12 GiB
Duration : 1h 14mn
Overall bit rate mode : Variable
Overall bit rate : 9 882 Kbps
Writing library : encoded by TMPGEnc MPEG Editor 2.0 Version. 2.2.8.177
Video
ID : 224 (0xE0)
Format : MPEG Video
Format version : Version 2
Format profile : Main@Main
Format settings, BVOP : Yes
Format settings, Matrix : Custom
Format settings, GOP : Variable
Duration : 1h 14mn
Bit rate mode : Variable
Bit rate : 9 500 Kbps
Width : 720 pixels
Height : 576 pixels
Display aspect ratio : 4:3
Frame rate : 25.000 fps
Standard : PAL
Color space : YUV
Chroma subsampling : 4:2:0
Bit depth : 8 bits
Scan type : Interlaced
Scan order : Top Field First
Compression mode : Lossy
Bits/(Pixel*Frame) : 0.916
Time code of first frame : 00:00:00:00
Time code source : Group of pictures header
Stream size : 4.88 GiB (95%)
Writing library : TMPGEnc MPEG Editor 2.2.8.177
Matrix coefficients : BT.601
Audio
ID : 189 (0xBD)-128 (0x80)
Format : AC-3
Format/Info : Audio Coding 3
Mode extension : CM (complete main)
Format settings, Endianness : Big
Muxing mode : DVD-Video
Duration : 1h 14mn
Bit rate mode : Constant
Bit rate : 256 Kbps
Channel(s) : 2 channels
Channel positions : Front: L R
Sampling rate : 48.0 KHz
Bit depth : 16 bits
Compression mode : Lossy
Stream size : 136 MiB (3%)

Скриншоты



[torrentc.info]_t_4482196.torrent
Торрент: Зарегистрирован ·  [ 2017-03-12 13:00 ] ·  43de4d33ebfaed684cab4dab353794efc760cab0

26 KB

Статус: проверено
Скачан: 0 раз
Размер: 5.12 GB
Оценка: 
(Голосов: 0)
Сказали спасибо: 0  Спасибо
Похожие темы
[Профиль]    [ЛС]
Показать сообщения:    
Ответить на тему

Текущее время: Сегодня 13:17

Часовой пояс: GMT + 7



Вы не можете начинать темы
Вы не можете отвечать на сообщения
Вы не можете редактировать свои сообщения
Вы не можете удалять свои сообщения
Вы не можете голосовать в опросах
Вы не можете прикреплять файлы к сообщениям
Вы можете скачивать файлы