Скуби-Ду и страшное Пугало / Scooby-Doo and the Scarecrow (Майкл Гоген / Michael Goguen) [2013, Мультипликация, DVDRip] MVO

Ответить на тему
Статистика раздачи [Обновить пиров]
Размер:  260 MB   |    Зарегистрирован:  1 год 2 месяца   |    Скачан:  0 раз

Полного источника не было: Никогда

 
   
 
 
 
Автор Сообщение

torrentc.info

Создавать темы 12-Мар-2017 13:00

[Цитировать]

Скуби-Ду и страшное Пугало / Scooby-Doo and the Scarecrow
Страна: США
Жанр: Мультипликация
Продолжительность: 00:21:43
Год выхода: 2013
Перевод: Профессиональный (многоголосый закадровый)
Русские субтитры: нет-Режиссёр: Майкл Гоген / Michael Goguen
Роли озвучивали: Минди Кон, Грей Делисле, Мэтью Лиллард, Фрэнк Уэлкер-Описание: В новой 22-х минутной серии "Скуби-Дy и страшное Пугало", Скуби и его команда охотников за привидениями приезжают на тихую ферму. Жители готовятся и празднику Хэллоуин, но не все в деревне тихо и спокойно. На местном кукурузном поле появляется пугало, которое оживила ведьма! Смогут ли наши вечноголодные герои оторваться от накрытого стола, чтобы решить зту загадку?- -
СПАСИБО Vlad-201194 за предоставленный материал.-Качество: DVDRip
Формат файла: AVI
Видео: MPEG4, XviD, 720x400 (16:9), 25.000 fps, 1 471 Kbps (0.204 bit/pixel)
Аудио: AC-3, 48.0 KHz, 2 ch, 192 Kbps, CBR
Субтитры: отсутствуют
Семпл: Забираем тут

Подробные технические данные

ОбщееПолное имя : F:\Scooby-Doo and the Scarecrow.aviФормат файла : AVIФормат файла/Информация : Audio Video InterleaveРазмер файла : 260 МбайтПродолжительность : 21 м.Общий поток : 1673 Кбит/секПрограмма кодирования : VirtualDubMod 1.5.10.2 (build 2542/release)Библиотека кодирования : VirtualDubMod build 2542/release
ВидеоИдентификатор : 0Формат файла : MPEG-4 VisualПрофиль формата : Advanced Simple@L5Параметр BVOP формата : 2Параметр QPel формата : НетПараметр GMC формата : Без точки переходаПараметр матрицы формата : Default (H.263)Идентификатор кодека : XVIDИдентификатор кодека/Подсказка : XviDПродолжительность : 21 м.Битрейт : 1471 Кбит/секШирина : 720 пикселейВысота : 400 пикселейСоотношение сторон : 16:9Частота кадров : 25,000 кадров/секЦветовое пространство : YUVСубдискретизация насыщенности : 4:2:0Битовая глубина : 8 битТип развёртки : ПрогрессивнаяМетод сжатия : С потерямиБит/(Пиксели*Кадры) : 0.204Размер потока : 228 Мбайт (88%)Библиотека кодирования : XviD 1.2.1 (UTC 2008-12-04)
АудиоИдентификатор : 1Формат файла : AC-3Формат файла/Информация : Audio Coding 3Расширение режима : CM (complete main)Параметр Endianness формата : BigИдентификатор кодека : 2000Продолжительность : 21 м.Вид битрейта : ПостоянныйБитрейт : 192 Кбит/секКаналы : 2 каналаРасположение каналов : Front: L RЧастота : 48,0 КГцБитовая глубина : 16 битМетод сжатия : С потерямиРазмер потока : 29,8 Мбайт (11%)Выравнивание : Разделение по промежуткамПродолжительность промежутка : 40 мс. (1,00 видеокадр)Время предзагрузки промежутка : 500 мс.

Скриншоты




[torrentc.info]_t_4651116.torrent
Торрент: Зарегистрирован ·  [ 2017-03-12 13:00 ] ·  fd04e7fa8d2d1e1e8abaa33a8dba9ba20fb399c8

11 KB

Статус: проверено
Скачан: 0 раз
Размер: 260 MB
Оценка: 
(Голосов: 0)
Сказали спасибо: 0  Спасибо
Похожие темы
[Профиль]    [ЛС]
Показать сообщения:    
Ответить на тему

Текущее время: Сегодня 09:09

Часовой пояс: GMT + 7



Вы не можете начинать темы
Вы не можете отвечать на сообщения
Вы не можете редактировать свои сообщения
Вы не можете удалять свои сообщения
Вы не можете голосовать в опросах
Вы не можете прикреплять файлы к сообщениям
Вы можете скачивать файлы