Скуби-Ду! Нападение Меха-Пса / Scooby-Doo! Mecha Mutt Menace (Виктор Кук / Victor Cook) [2013, Ужасы, Детектив, Комедия, HDTV 1080i] Original Eng + Sub (Rus, Eng)

Ответить на тему
Статистика раздачи [Обновить пиров]
Размер:  819 MB   |    Зарегистрирован:  1 год 7 месяцев   |    Скачан:  0 раз

Полного источника не было: Никогда

 
   
 
 
 
Автор Сообщение

torrentc.info

Создавать темы 12-Мар-2017 13:00

[Цитировать]

Скуби-Ду! Нападение Меха-Пса / Scooby-Doo! Mecha Mutt Menace
Страна: США
Жанр: Ужасы, Детектив, Комедия
Продолжительность: 00:21:40
Год выхода: 2013
Перевод: Субтитры
Русские субтитры: есть
Главы: есть, 5 шт-Режиссёр: Виктор Кук / Victor Cook
Описание: Команде придется сразиться с Меха-Псом, революционным луноходом на радиоуправлении.-Качество: HDTV 1080i
Формат файла: MKV
Видео: MPEG-4 AVC | 1920x1080 | 25.000 fps | 4985 kbps
Аудио: ENG | AC-3 | 48.0 kHz | 2 ch | 192 kbps
Субтитры 1: RUS | SRT | UTF-8 - с DVD R5 от "СР-Дистрибуция"
Субтитры 2: ENG | SRT | UTF-8
Семпл

Подробные технические данные

GeneralUnique ID : 218549135065705511839903167927662237977 (0xA46B08485F08AA5E9ABB67ABEFF15919)Complete name : D:\РАЗДАЧА\2013 Scooby-Doo! Mecha Mutt Menace HDTV 1080i [ENG] {RUS} {ENG} (CHP).mkvFormat : MatroskaFormat version : Version 4 / Version 2File size : 819 MiBDuration : 21mn 41sOverall bit rate : 5 283 KbpsMovie name : Scooby-Doo! Mecha Mutt MenaceEncoded date : UTC 2015-01-30 09:41:55Writing application : mkvmerge v7.5.0 ('Glass Culture') 64bit built on Jan 4 2015 16:48:44Writing library : libebml v1.3.1 + libmatroska v1.4.2Attachements : cover.png
VideoID : 1Format : AVCFormat/Info : Advanced Video CodecFormat profile : High@L4.0Format settings, CABAC : YesFormat settings, ReFrames : 4 framesFormat settings, GOP : M=4, N=32Codec ID : V_MPEG4/ISO/AVCDuration : 21mn 41sBit rate : 4 985 KbpsWidth : 1 920 pixelsHeight : 1 080 pixelsDisplay aspect ratio : 16:9Frame rate mode : ConstantFrame rate : 25.000 fpsColor space : YUVChroma subsampling : 4:2:0Bit depth : 8 bitsScan type : InterlacedScan order : Top Field FirstBits/(Pixel*Frame) : 0.096Stream size : 773 MiB (94%)Language : PolishDefault : YesForced : NoColor primaries : BT.709Transfer characteristics : BT.709Matrix coefficients : BT.709Color range : Limited
AudioID : 2Format : AC-3Format/Info : Audio Coding 3Mode extension : CM (complete main)Format settings, Endianness : BigCodec ID : A_AC3Duration : 21mn 41sBit rate mode : ConstantBit rate : 192 KbpsChannel(s) : 2 channelsChannel positions : Front: L RSampling rate : 48.0 KHzBit depth : 16 bitsCompression mode : LossyDelay relative to video : 120msStream size : 29.8 MiB (4%)Language : EnglishDefault : YesForced : No
Text #1ID : 3Format : UTF-8Codec ID : S_TEXT/UTF8Codec ID/Info : UTF-8 Plain TextLanguage : RussianDefault : YesForced : No
Text #2ID : 4Format : UTF-8Codec ID : S_TEXT/UTF8Codec ID/Info : UTF-8 Plain TextLanguage : EnglishDefault : NoForced : No
Menu00:00:00.000 : Chapter 0100:00:19.970 : Chapter 0200:07:23.410 : Chapter 0300:13:46.930 : Chapter 0400:21:07.050 : Chapter 05

Скриншоты



[torrentc.info]_t_4927577.torrent
Торрент: Зарегистрирован ·  [ 2017-03-12 13:00 ] ·  eeb33f8faa59bf66a5dc88b2731aee873c7dde19

17 KB

Статус: проверено
Скачан: 0 раз
Размер: 819 MB
Оценка: 
(Голосов: 0)
Сказали спасибо: 0  Спасибо
Похожие темы
[Профиль]    [ЛС]
Показать сообщения:    
Ответить на тему

Текущее время: Сегодня 13:20

Часовой пояс: GMT + 7



Вы не можете начинать темы
Вы не можете отвечать на сообщения
Вы не можете редактировать свои сообщения
Вы не можете удалять свои сообщения
Вы не можете голосовать в опросах
Вы не можете прикреплять файлы к сообщениям
Вы можете скачивать файлы