Скуби-Ду! и Пляжное Чудище / Scooby-Doo! and the Beach Beastie (Виктор Кук / Victor Cook) [2015, Ужасы, Детектив, Комедия, HDTVRip 720p] Original Eng + Sub (Rus, Eng)

Ответить на тему
Статистика раздачи [Обновить пиров]
Размер:  551 MB   |    Зарегистрирован:  1 год 5 месяцев   |    Скачан:  1 раз

Полного источника не было: 7 месяцев

 
   
 
 
 
Автор Сообщение

torrentc.info

Создавать темы 12-Мар-2017 13:00

[Цитировать]

Скуби-Ду! и Пляжное Чудище / Scooby-Doo! and the Beach Beastie
Страна: США
Жанр: Ужасы, Детектив, Комедия
Продолжительность: 00:21:48
Год выхода: 2015
Перевод: субтитры
Русские субтитры: есть
Главы: нет-Режиссёр: Виктор Кук / Victor Cook
Описание: Для команды Скуби жизнь никогда не казалась днем на пляже. Поэтому, отправившись отдохнуть на курорт во Флориде, они наслаждаются солнцем, песком и... монстром.-Качество: HDTVRip 720p
Формат файла: MKV
Видео: AVC | 1280x720 | 23.976 fps | 3073 kbps
Аудио: ENG | AC-3 | 48.0 kHz | 6 ch | 448 kbps
Субтитры 1: ASS | Русские, стилизованные | перевод - yaroslav230596
Субтитры 2: SRT | Eng SDH
Сэмпл

Подробные технические данные

Format : MatroskaFormat version : Version 4 / Version 2File size : 551 MiBDuration : 21 minOverall bit rate : 3 509 kb/sMovie name : Scooby-Doo! And the Beach BeastieEncoded date : UTC 2016-09-08 16:36:51Writing application : mkvmerge v9.4.0 ('Knurl') 64bitWriting library : libebml v1.3.4 + libmatroska v1.4.5Cover : YesAttachments : cover.png
VideoID : 1Format : AVCFormat/Info : Advanced Video CodecFormat profile : High@L4.1Format settings, CABAC : YesFormat settings, ReFrames : 9 framesCodec ID : V_MPEG4/ISO/AVCDuration : 21 minBit rate : 3 073 kb/sWidth : 1 280 pixelsHeight : 720 pixelsDisplay aspect ratio : 16:9Frame rate mode : VariableFrame rate : 23.897 FPSOriginal frame rate : 23.976 (24000/1001) FPSColor space : YUVChroma subsampling : 4:2:0Bit depth : 8 bitsScan type : ProgressiveBits/(Pixel*Frame) : 0.140Stream size : 479 MiB (87%)Writing library : x264 core 148 r2597 e86f3a1Encoding settings : cabac=1 / ref=9 / deblock=1:1:1 / analyse=0x3:0x113 / me=umh / subme=8 / psy=1 / psy_rd=0.40:0.00 / mixed_ref=1 / me_range=16 / chroma_me=1 / trellis=1 / 8x8dct=1 / cqm=0 / deadzone=21,11 / fast_pskip=1 / chroma_qp_offset=-2 / threads=12 / lookahead_threads=3 / sliced_threads=0 / nr=0 / decimate=1 / interlaced=0 / bluray_compat=0 / constrained_intra=0 / bframes=5 / b_pyramid=2 / b_adapt=2 / b_bias=0 / direct=3 / weightb=1 / open_gop=0 / weightp=2 / keyint=250 / keyint_min=25 / scenecut=40 / intra_refresh=0 / rc_lookahead=50 / rc=crf / mbtree=1 / crf=18.0 / qcomp=0.60 / qpmin=0 / qpmax=69 / qpstep=4 / ip_ratio=1.40 / aq=1:0.60Language : EnglishDefault : YesForced : No
AudioID : 2Format : AC-3Format/Info : Audio Coding 3Mode extension : CM (complete main)Format settings, Endianness : BigCodec ID : A_AC3Duration : 21 minBit rate mode : ConstantBit rate : 448 kb/sChannel(s) : 6 channelsChannel positions : Front: L C R, Side: L R, LFESampling rate : 48.0 kHzFrame rate : 31.250 FPS (1536 spf)Compression mode : LossyStream size : 69.6 MiB (13%)Language : EnglishDefault : YesForced : No
Text #1ID : 3Format : ASSCodec ID : S_TEXT/ASSCodec ID/Info : Advanced Sub Station AlphaDuration : 21 minBit rate : 166 b/sCount of elements : 289Compression mode : LosslessStream size : 25.9 KiB (0%)Title : yaroslav230596Language : RussianDefault : YesForced : No
Text #2ID : 4Format : UTF-8Codec ID : S_TEXT/UTF8Codec ID/Info : UTF-8 Plain TextDuration : 21 minBit rate : 84 b/sCount of elements : 374Stream size : 13.5 KiB (0%)Language : EnglishDefault : NoForced : No

Скриншоты



[torrentc.info]_t_5279774.torrent
Торрент: Зарегистрирован ·  [ 2017-03-12 13:00 ] ·  f580db13ef544f1bd39d4e56e3c343b0c57effc4

11 KB

Статус: проверено
Скачан: 1 раз
Размер: 551 MB
Оценка: 
(Голосов: 0)
Сказали спасибо: 0  Спасибо
Похожие темы
[Профиль]    [ЛС]
Показать сообщения:    
Ответить на тему

Текущее время: Сегодня 00:17

Часовой пояс: GMT + 7



Вы не можете начинать темы
Вы не можете отвечать на сообщения
Вы не можете редактировать свои сообщения
Вы не можете удалять свои сообщения
Вы не можете голосовать в опросах
Вы не можете прикреплять файлы к сообщениям
Вы можете скачивать файлы