Люди в черном 2 / Men in Black II (Барри Зонненфельд / Barry Sonnenfeld) [2002, США, Фантастическая комедия, BDRip] AVO (Сергей Визгунов)

Ответить на тему
Статистика раздачи [Обновить пиров]
Размер:  1.46 GB   |    Зарегистрирован:  1 год 7 месяцев   |    Скачан:  0 раз

Полного источника не было: Никогда

 
   
 
 
 
Автор Сообщение

torrentc.info

Создавать темы 14-Фев-2017 19:18

[Цитировать]

Люди в черном 2 / Men in Black II
«Хорошие парни носят чёрное»
Страна: США
Жанр: Фантастическая комедия
Год выхода: 2002
Продолжительность: 01:28:08
Перевод: Авторский (одноголосый закадровый) Сергей Визгунов
Cубтитры: нет
Режиссер: Барри Зонненфельд / Barry Sonnenfeld
В ролях: Томми Ли Джонс (Kevin Brown, Agent Kay), Уилл Смит (Agent Jay), Рип Торн (Zed), Лара Флинн Бойл (Serleena), Джонни Ноксвил (Scrad / Charlie), Розарио Доусон (Laura Vasquez), Тони Шэлуб (Jack Jeebs), Патрик Варбертон (Agent T), Джек Келер (Ben), Дэвид Кросс (Newton), Коломба Якобсен-Дерстин (Hailey), Питер Спеллос (Captain Larry Bridgewater, The Motorman)
Описание: ВОЗВРАЩЕНИЕ ЛЕГЕНДАРНОГО БЛОКБАСТЕРА!
"Люди в черном" возвращаются! Герои самой кассовой фантастической комедии 1997 года, агенты сверхсекретной спецслужбы, регулирующей деятельность инопланетян на Земле, Джей и Кей снова встают на защиту родной планеты от отбросов вселенной. На повестке дня "Людей в черном"- спасение мира! Космическая злодейка Серлена нелегально прилетает на Землю, захватить некий "светоч Зарты", способный погубить нашу планету. Кто первым доберется до "светоча"?- вопрос жизни и смерти. А значит, судьба Земли опять в руках Кея и Джея , легендарной парочки, уже однажды спасшей мир. Все как в старые добрые времена!
Доп. информация: Дорожка с С. Визгуновым синхронизирована и наложена ale_x2008 при помощи Sony Vegas и VirtualDubMod.
За оцифрованную с VHS дорожку благодарим - Krasnovv

Релиз группы:
Сэмпл: https://yadi.sk/i/IGHof3QA38KdRg
Качество видео: BDRip
Формат файла: AVI
Видео: XviD build 65, 704x384 (1.83:1), 23.976 fps, 2174 kbps avg, 0.34 bit/pixel
Аудио: AC3 Dolby Digital, 48000Hz, 2/0 (L,R) ch (mono), 192.00 kbps avg

MediaInfo

Люди в черном 2 - Men in Black II [by ale_x2008].avi
Format : AVI
Format/Info : Audio Video Interleave
File size : 1.46 GiB
Duration : 1 h 28 min
Overall bit rate : 2 376 kb/s
Movie name : Люди в черном 2 - Men in Black II [by ale_x2008]
Director : by ale_x2008
Writing application : VirtualDubMod 1.5.10.2 (build 2540/release)
Copyright : Edich2
Comment : Torrentc.org
Video
ID : 0
Format : MPEG-4 Visual
Format profile : Advanced Simple@L5
Format settings, BVOP : 1
Format settings, QPel : No
Format settings, GMC : No warppoints
Format settings, Matrix : Custom
Codec ID : XVID
Codec ID/Hint : XviD
Duration : 1 h 28 min
Bit rate : 2 175 kb/s
Width : 704 pixels
Height : 384 pixels
Display aspect ratio : 1.85:1
Frame rate : 23.976 (23976/1000) FPS
Color space : YUV
Chroma subsampling : 4:2:0
Bit depth : 8 bits
Scan type : Progressive
Compression mode : Lossy
Bits/(Pixel*Frame) : 0.336
Stream size : 1.34 GiB (92%)
Writing library : XviD 65
Audio
ID : 1
Format : AC-3
Format/Info : Audio Coding 3
Mode extension : CM (complete main)
Format settings, Endianness : Big
Codec ID : 2000
Duration : 1 h 28 min
Bit rate mode : Constant
Bit rate : 192 kb/s
Channel(s) : 2 channels
Channel positions : Front: L R
Sampling rate : 48.0 kHz
Frame rate : 31.250 FPS (1536 spf)
Compression mode : Lossy
Stream size : 121 MiB (8%)
Alignment : Split accross interleaves
Interleave, duration : 42 ms (1.00 video frame)
Interleave, preload duratio : 500 ms

Скриншоты




[torrentc.info]_torrent-5339713.torrent
Торрент: Зарегистрирован ·  [ 2017-02-14 19:18 ] ·  ada69a2c8820986f0f94ff4931dfeeaba19f5a46

15 KB

Статус: проверено
Скачан: 0 раз
Размер: 1.46 GB
Оценка: 
(Голосов: 0)
Сказали спасибо: 0  Спасибо
Похожие темы
[Профиль]    [ЛС]
Показать сообщения:    
Ответить на тему

Текущее время: Сегодня 14:25

Часовой пояс: GMT + 7



Вы не можете начинать темы
Вы не можете отвечать на сообщения
Вы не можете редактировать свои сообщения
Вы не можете удалять свои сообщения
Вы не можете голосовать в опросах
Вы не можете прикреплять файлы к сообщениям
Вы можете скачивать файлы