Аватар: Легенда об Аанге / Avatar: The Last Airbender / Книга 2: Земля / Серии: 1-6 (20) (Майкл Данте ДиМартино / Michael Dante DiMartino, Брайан Кониецко / Bryan Konietzko) [2006, приключения, семейный, фэнтези, 3xDVD5] Dub + Original

Ответить на тему
Статистика раздачи [Обновить пиров]
Размер:  8.42 GB   |    Зарегистрирован:  2 года   |    Скачан:  0 раз

Полного источника не было: Никогда

 
   
 
 
 
Автор Сообщение

Кейт

Создавать темы 12-Мар-2017 11:18

[Цитировать]

Аватар: Легенда об Аанге Книга вторая Tv 1-6 (1-3 DVD из 10) / Avatar: The Last Airbender The book two- Страна: США
Жанр: Мультфильм, приключения, семейный, фэнтези
Продолжительность: 6 серий по 22
Год выхода: 2006
Перевод: Профессиональный (дублированный)
Русские субтитры: нет-Режиссёр: Майкл Данте ДиМартино / Michael Dante DiMartino; Брайан Кониецко / Bryan Konietzko-Описание: «Аватар: Легенда об Аанге» — это история Аанга, двенадцатилетнего мальчика, который просто хотел жить обычной жизнью, но в его судьбу вмешалось появление долгожданного Аватара. Аанг призван возглавить борьбу с жестоким Народом Огня, чтобы восстановить равновесие в разобщенном войной мире. Аанг отправляется в опасное путешествие, чтобы спасти мир. Ему помогают юная, но отважная Маг Воды по имени Катара и её простодушный брат-воин по имени Сокка. Согласно легенде, Аангу надо выучить магию Воды, затем Земли, а затем Огня... В пути Аанг иногда забывает о своей нелегкой миссии, и тогда он просто радуется тому, что он обычный мальчишка-

Список серий

1.Состояние Аватара2.Пещера двух влюблённых3.Возвращение в Омашу4.Болото5.День Аватара6.Слепой бандит
-Доп. информация: Первые три диска от интернет магазина suzaku. В этой [url=viewtopic.php?t=2082330]раздаче[/url] первые три диска одноголосый перевод какого-то перца, комментарий [url=viewtopic.php?p=44005711#44005711]здесь[/url], лично скачивал и в этом убедился.
В интернет магазине suzaku Аватар: Легенда об Аанге Книга вторая была на 10 DVD по две серии на диск, но в этой [url=viewtopic.php?t=2082330]раздаче[/url] почему-то их 9, первые три от орегинального издания Nickelodeon, качество у них конечно лучше, но перевод любительский одноголосый, а остальные диски от suzaku. Издание интернет магазина suzaku Аватар: Легенда об Аанге Книга вторая была на 10 DVD и оно имеется у меня полностью и последняя серия не обрывается на половине как в этой [url=viewtopic.php?t=2082330]раздаче[/url], а заканчивается нормально. Комментарии [url=viewtopic.php?p=37030012#37030012]здесь[/url] и [url=viewtopic.php?p=45132220#45132220]здесь[/url]-[url=tracker.php?f=922&nm=%C0%E2%E0%F2%E0%F0]Аватар[/url]-сэмпл-Качество: DVD5
Формат файла: DVD-Video
Видео: NTSC 4:3 (720x480),8 000 Kbps. VBR
Аудио: Russian (Dolby AC3, 2 ch), 2 channels 48.0 KHz. 192 Kbps.
Аудио 2: English (Dolby AC3, 2 ch), 2 channels 48.0 KHz. 192 Kbps.
Субтитры: нет-

DVDInfo

Title: 1 DVDSize: 2.82 Gb ( 2 957 804,00 KBytes ) - DVD-5Enabled regions: 1, 2, 3, 4, 5, 6, 7, 8
VTS_01 : Play Length: 00:48:01 Video: NTSC 4:3 (720x480) VBR Audio: Russian (Dolby AC3, 2 ch) English (Dolby AC3, 2 ch)
* Menus Information *
VIDEO_TS MenuVideo: NTSC 4:3 (720x480) VBRRussian Language Unit : Title Menu
VTS_01 MenuVideo: NTSC 4:3 (720x480) VBRRussian Language Unit : Root Menu Audio Menu

-

Подробные технические данные

GeneralComplete name : D:\Avatar. The book two(1-3 DVD)\1 DVD\VIDEO_TS.VOBFormat : MPEG-PSFile size : 70.0 KiBDuration : 33msOverall bit rate : 17.4 Mbps
VideoID : 224 (0xE0)Format : MPEG VideoFormat version : Version 2Format profile : Main@MainFormat settings, Matrix : DefaultDuration : 33msBit rate mode : ConstantBit rate : 8 000 KbpsWidth : 720 pixelsHeight : 480 pixelsDisplay aspect ratio : 4:3Frame rate : 29.970 fpsStandard : NTSCColorimetry : 4:2:0Scan type : ProgressiveScan order : Top Field FirstBits/(Pixel*Frame) : 0.772Stream size : 32.2 KiB (46%)
GeneralComplete name : D:\Avatar. The book two(1-3 DVD)\1 DVD\VTS_01_0.VOBFormat : MPEG-PSFile size : 142 KiBDuration : 33msOverall bit rate : 35.3 Mbps
VideoID : 224 (0xE0)Format : MPEG VideoFormat version : Version 2Format profile : Main@MainFormat settings, Matrix : DefaultDuration : 33msBit rate mode : ConstantBit rate : 8 000 KbpsWidth : 720 pixelsHeight : 480 pixelsDisplay aspect ratio : 4:3Frame rate : 29.970 fpsStandard : NTSCColorimetry : 4:2:0Scan type : ProgressiveScan order : Top Field FirstBits/(Pixel*Frame) : 0.772Stream size : 32.2 KiB (23%)
TextID : 32 (0x20)Format : RLEFormat/Info : Run-length encoding
GeneralComplete name : D:\Avatar. The book two(1-3 DVD)\1 DVD\VTS_01_1.VOBFormat : MPEG-PSFile size : 1 024 MiBDuration : 16mn 47sOverall bit rate : 8 527 KbpsWriting library : encoded by TMPGEnc 3.0 XPress Version. 3.0.4.24
VideoID : 224 (0xE0)Format : MPEG VideoFormat version : Version 2Format profile : Main@MainFormat settings, Matrix : DefaultDuration : 16mn 47sBit rate mode : ConstantBit rate : 7 805 KbpsNominal bit rate : 8 000 KbpsWidth : 720 pixelsHeight : 480 pixelsDisplay aspect ratio : 4:3Frame rate : 29.970 fpsStandard : NTSCColorimetry : 4:2:0Scan type : ProgressiveBits/(Pixel*Frame) : 0.754Stream size : 937 MiB (92%)Writing library : TMPGEnc 3.0 XPress Version. 3.0.4.24
Audio #1ID : 128 (0x80)Format : AC-3Format/Info : Audio Coding 3Duration : 16mn 46sBit rate mode : ConstantBit rate : 192 KbpsChannel(s) : 2 channelsChannel positions : L RSampling rate : 48.0 KHzStream size : 23.0 MiB (2%)
Audio #2ID : 129 (0x81)Format : AC-3Format/Info : Audio Coding 3Duration : 16mn 46sBit rate mode : ConstantBit rate : 192 KbpsChannel(s) : 2 channelsChannel positions : L RSampling rate : 48.0 KHzStream size : 23.0 MiB (2%)
GeneralComplete name : D:\Avatar. The book two(1-3 DVD)\1 DVD\VTS_01_2.VOBFormat : MPEG-PSFile size : 1 024 MiB
VideoID : 224 (0xE0)Format : MPEG VideoFormat version : Version 2Format profile : Main@MainFormat settings, Matrix : DefaultBit rate mode : ConstantBit rate : 8 000 KbpsWidth : 720 pixelsHeight : 480 pixelsDisplay aspect ratio : 4:3Frame rate : 29.970 fpsStandard : NTSCColorimetry : 4:2:0Scan type : ProgressiveBits/(Pixel*Frame) : 0.772
Audio #1ID : 128 (0x80)Format : AC-3Format/Info : Audio Coding 3Bit rate mode : ConstantBit rate : 192 KbpsChannel(s) : 2 channelsChannel positions : L RSampling rate : 48.0 KHzVideo delay : -97ms
Audio #2ID : 129 (0x81)Format : AC-3Format/Info : Audio Coding 3Bit rate mode : ConstantBit rate : 192 KbpsChannel(s) : 2 channelsChannel positions : L RSampling rate : 48.0 KHzVideo delay : -97ms
GeneralComplete name : D:\Avatar. The book two(1-3 DVD)\1 DVD\VTS_01_3.VOBFormat : MPEG-PSFile size : 841 MiBDuration : 14mn 12sOverall bit rate : 8 274 Kbps
VideoID : 224 (0xE0)Format : MPEG VideoFormat version : Version 2Format profile : Main@MainFormat settings, Matrix : DefaultDuration : 14mn 12sBit rate mode : ConstantBit rate : 7 562 KbpsNominal bit rate : 7 748 KbpsWidth : 720 pixelsHeight : 480 pixelsDisplay aspect ratio : 4:3Frame rate : 29.970 fpsStandard : NTSCColorimetry : 4:2:0Scan type : ProgressiveBits/(Pixel*Frame) : 0.730Stream size : 768 MiB (91%)
Audio #1ID : 128 (0x80)Format : AC-3Format/Info : Audio Coding 3Duration : 14mn 12sBit rate mode : ConstantBit rate : 192 KbpsChannel(s) : 2 channelsChannel positions : L RSampling rate : 48.0 KHzVideo delay : -119msStream size : 19.5 MiB (2%)
Audio #2ID : 129 (0x81)Format : AC-3Format/Info : Audio Coding 3Duration : 14mn 12sBit rate mode : ConstantBit rate : 192 KbpsChannel(s) : 2 channelsChannel positions : L RSampling rate : 48.0 KHzVideo delay : -119msStream size : 19.5 MiB (2%)

-

Скриншоты меню



-

Скриншоты



-


[torrentc.info]_t_3761419.torrent
Торрент: Зарегистрирован ·  [ 2017-03-12 11:18 ] ·  d809d8e40a7ef7ef78c3647438d1ba19151605fd

86 KB

Статус: проверено
Скачан: 0 раз
Размер: 8.42 GB
Оценка: 
(Голосов: 0)
Сказали спасибо: 0  Спасибо
Похожие темы
[Профиль]    [ЛС]
Показать сообщения:    
Ответить на тему

Текущее время: Сегодня 01:26

Часовой пояс: GMT + 7



Вы не можете начинать темы
Вы не можете отвечать на сообщения
Вы не можете редактировать свои сообщения
Вы не можете удалять свои сообщения
Вы не можете голосовать в опросах
Вы не можете прикреплять файлы к сообщениям
Вы можете скачивать файлы