Аватар: Легенда о Корре / The Legend of Korra / Книга 3: Перемена / Серии: 1-13 (13) (Майкл Данте ДиМартино / Michael Dante DiMartino, Брайан Кониецко / Bryan Konietzko) [2014, мультсериал, приключения, семейный, фэнтези, HDTVRip] DVO (LE-Production)

Ответить на тему
Статистика раздачи [Обновить пиров]
Размер:  2.26 GB   |    Зарегистрирован:  1 год 9 месяцев   |    Скачан:  0 раз

Полного источника не было: Никогда

Личеров:  1  [  0 KB/s  ]   Подробная статистика скачивающих
 
   
 
 
 
Автор Сообщение

torrentc.info

Создавать темы 12-Мар-2017 11:18

[Цитировать]

Аватар: Легенда о Корре / The Legend of Korra
Страна: США
Жанр: мультсериал, приключения, семейный, фэнтези
Продолжительность: ~ 23 минуты
Год выхода: 2014
Перевод: Любительский (двухголосый закадровый)[LE-Production]
Русские субтитры: нет
Режиссёр: Майкл Данте Димартино, Брайан Кониецко / Michael Dante DiMartino, Bryan Konietzko
Роли озвучивали: Тимиркан Сиюхов и Маргарита Щелкунова
Описание: Мир вступает в новую эру! Гармоническое сближение вызвало сдвиг в энергетическом поле планеты, а Республиканский город спустя недели всё ещё не оправился после битвы Корры и УнаВаату. Весь город зарос и превратился в джунгли, которые новоприбывшие духи считают своим домом. Но не ждут ли наш город ещё какие-то перемены?
Список серий:
01. Глоток свежего воздуха
02. Перерождение
03. Королева Земли
04. В опасности
05. Клан Металла
06. Старые раны
07. Истинные маги воздуха
08. Ужас внутри
09. Надзор
10. Да здравствует Королева!
11. Ультиматум
12. Вступи в пустоту
13. Яд Красного лотоса
[url=tracker.php?f=922&nm=%E0%E2%E0%F2%E0%F0+%EB%E5%E3%E5%ED%E4%E0+%EE+%EA%EE%F0%F0%E5]Все раздачи мультсериала[/url]
Семпл: http://sendfile.su/1015384
Качество: HDTVRip
Формат файла: AVI
Видео: XVID, 720х400 (16:9), 23.976 fps, ~900 kbps
Аудио: MP3, 48000 Hz, 2 ch, 192 kbps
Субтитры: отсутствуют

Подробные технические данные

Формат файла : AVIФормат файла/Информация : Audio Video InterleaveРазмер файла : 179 МбайтПродолжительность : 22 м.Общий поток : 1125 Кбит/секПрограмма кодирования : MEncoder SVN-r33883(20110719-gcc4.5.2)Библиотека кодирования : MPlayer
ВидеоИдентификатор : 0Формат файла : MPEG-4 VisualПрофиль формата : Advanced Simple@L5Параметр BVOP формата : 2Параметр QPel формата : НетПараметр GMC формата : Без точки переходаПараметр матрицы формата : Default (H.263)Идентификатор кодека : XVIDИдентификатор кодека/Подсказка : XviDПродолжительность : 22 м.Битрейт : 900 Кбит/секШирина : 720 пикселейВысота : 400 пикселейСоотношение сторон : 16:9Частота кадров : 23,976 кадра/секЦветовое пространство : YUVСубдискретизация насыщенности : 4:2:0Битовая глубина : 8 битТип развёртки : ПрогрессивнаяМетод сжатия : С потерямиБит/(Пиксели*Кадры) : 0.133Размер потока : 146 Мбайт (82%)Библиотека кодирования : XviD 1.2.1 (UTC 2008-12-04)
АудиоИдентификатор : 1Формат файла : MPEG AudioВерсия формата : Version 1Профиль формата : Layer 3Режим : Joint stereoРасширение режима : MS StereoИдентификатор кодека : 55Идентификатор кодека/Подсказка : MP3Продолжительность : 22 м.Вид битрейта : ПостоянныйБитрейт : 192 Кбит/секКаналы : 2 каналаЧастота : 48,0 КГцМетод сжатия : С потерямиЗадержка видео : 42 мс.Размер потока : 30,5 Мбайт (17%)Выравнивание : Соединение по промежуткамПродолжительность промежутка : 24 мс. (0,58 видеокадр)Время предзагрузки промежутка : 504 мс.Библиотека кодирования : LAME3.98.4

Скриншоты



[torrentc.info]_t_4810475.torrent
Торрент: Зарегистрирован ·  [ 2017-03-12 11:18 ] ·  713f65a70249107674f3a9ce9081e705ab9dd2f8

13 KB

Статус: проверено
Скачан: 0 раз
Размер: 2.26 GB
Оценка: 
(Голосов: 0)
Сказали спасибо: 0  Спасибо
Похожие темы
[Профиль]    [ЛС]
Показать сообщения:    
Ответить на тему

Текущее время: Сегодня 01:55

Часовой пояс: GMT + 7



Вы не можете начинать темы
Вы не можете отвечать на сообщения
Вы не можете редактировать свои сообщения
Вы не можете удалять свои сообщения
Вы не можете голосовать в опросах
Вы не можете прикреплять файлы к сообщениям
Вы можете скачивать файлы