Любовь зла / Мелкий Хэл / Shallow Hal (Бобби Фаррелли / Bobby Farrelly) [2001, США, Германия, фэнтези, комедия, мелодрама, драма, BDRip] AVO (Сергей Визгунов)

Ответить на тему
Статистика раздачи [Обновить пиров]
Размер:  2.03 GB   |    Зарегистрирован:  1 год 9 месяцев   |    Скачан:  0 раз

Полного источника не было: Никогда

 
   
 
 
 
Автор Сообщение

torrentc.info

Создавать темы 14-Фев-2017 19:18

[Цитировать]

Любовь зла / Мелкий Хэл / Shallow Hal
«Сто пудов чистой любви!»
Страна: США, Германия
Жанр: фэнтези, комедия, мелодрама, драма
Год выхода: 2001
Продолжительность: 01:53:43
Перевод: Авторский (одноголосый закадровый) Сергей Визгунов
Cубтитры: нет
Режиссер: Бобби Фаррелли / Bobby Farrelly
В ролях: Гвинет Пэлтроу, Джек Блэк, Джейсон Александер, Рене Кирби, Брюс МакГилл, Энтони Роббинс, Сьюзан Уорд, Зен Геснер, Брук Бернс
Описание: Тяжеловесная комедия!
Если девушка весит 130 килограмм - это много или мало? Для Хэла эта мелочь не имеет значения, так как главное - это внутренняя красота. Но так он считает только сейчас...
Всего несколько недель назад Хэла интересовала в женщинах только внешность. Если девушка не обладает безупречной фигурой, ему и в голову не придет пригласить ее на свидание. Но после неожиданного сеанса гипноза Хэл полностью меняется - теперь он видит в женщинах только внутреннюю красоту. Под действием гипноза Хэл влюбляется в (мягко говоря) толстушку Розмари, которая настолько сражает его своей добротой и юмором, что кажется ему красавицей. Но чары развеиваются, и перед ним предстает девушка "немного" не той комплекции, в которую он был влюблен.
Доп. информация: Дорожка с С. Визгуновым синхронизирована и наложена ale_x2008 при помощи Sony Vegas и VirtualDubMod. Восстановлен правильный стереоэффект.
За оцифрованную с VHS дорожку благодарим - d_rocker

Релиз группы:
Сэмпл: https://yadi.sk/i/zpUdKT0v38SyLv
Качество видео: BDRip
Формат файла: AVI
Видео: 704x384 (1.83:1), 23.976 fps, XviD build 64 ~1974 kbps avg, 0.30 bit/pixel
Аудио: AC3 Dolby Digital, 48000Hz, 2/0 (L,R) ch (stereo), 192.00 kbps avg
Аудио 2: 48 kHz, AC3 Dolby Digital, 3/2 (L,C,R,l,r) + LFE ch, ~384 kbps |Eng|

MediaInfo

Любовь зла - Shallow Hal [by ale_x2008].avi
Format : AVI
Format/Info : Audio Video Interleave
Format profile : OpenDML
File size : 2.03 GiB
Duration : 1 h 53 min
Overall bit rate : 2 558 kb/s
Movie name : Любовь зла - Shallow Hal [by ale_x2008]
Director : by ale_x2008
Writing application : VirtualDubMod 1.5.10.2 (build 2540/release)
Copyright : Edich2
Comment : Torrentc.org
Video
ID : 0
Format : MPEG-4 Visual
Format profile : Advanced Simple@L5
Format settings, BVOP : 1
Format settings, QPel : No
Format settings, GMC : No warppoints
Format settings, Matrix : Custom
Codec ID : XVID
Codec ID/Hint : XviD
Duration : 1 h 53 min
Bit rate : 1 964 kb/s
Width : 704 pixels
Height : 384 pixels
Display aspect ratio : 1.85:1
Frame rate : 23.976 (24000/1001) FPS
Color space : YUV
Chroma subsampling : 4:2:0
Bit depth : 8 bits
Scan type : Progressive
Compression mode : Lossy
Bits/(Pixel*Frame) : 0.303
Stream size : 1.56 GiB (77%)
Writing library : XviD 64
Audio #1
ID : 1
Format : AC-3
Format/Info : Audio Coding 3
Mode extension : CM (complete main)
Format settings, Endianness : Big
Codec ID : 2000
Duration : 1 h 53 min
Bit rate mode : Constant
Bit rate : 192 kb/s
Channel(s) : 2 channels
Channel positions : Front: L R
Sampling rate : 48.0 kHz
Frame rate : 31.250 FPS (1536 spf)
Compression mode : Lossy
Stream size : 156 MiB (8%)
Alignment : Split accross interleaves
Interleave, duration : 42 ms (1.00 video frame)
Interleave, preload duratio : 500 ms
Audio #2
ID : 2
Format : AC-3
Format/Info : Audio Coding 3
Mode extension : CM (complete main)
Format settings, Endianness : Big
Codec ID : 2000
Duration : 1 h 53 min
Bit rate mode : Constant
Bit rate : 384 kb/s
Channel(s) : 6 channels
Channel positions : Front: L C R, Side: L R, LFE
Sampling rate : 48.0 kHz
Frame rate : 31.250 FPS (1536 spf)
Compression mode : Lossy
Stream size : 312 MiB (15%)
Alignment : Split accross interleaves
Interleave, duration : 42 ms (1.00 video frame)
Interleave, preload duratio : 500 ms

Скриншоты




[torrentc.info]_torrent-5339966.torrent
Торрент: Зарегистрирован ·  [ 2017-02-14 19:18 ] ·  3751b189ab5ff28cb381258012c17f92690a7d6f

11 KB

Статус: проверено
Скачан: 0 раз
Размер: 2.03 GB
Оценка: 
(Голосов: 0)
Сказали спасибо: 0  Спасибо
Похожие темы
[Профиль]    [ЛС]
Показать сообщения:    
Ответить на тему

Текущее время: Сегодня 07:03

Часовой пояс: GMT + 7



Вы не можете начинать темы
Вы не можете отвечать на сообщения
Вы не можете редактировать свои сообщения
Вы не можете удалять свои сообщения
Вы не можете голосовать в опросах
Вы не можете прикреплять файлы к сообщениям
Вы можете скачивать файлы