Удар по воротам 2: Разбивая лед / Slap Shot 2: Breaking the Ice (Стив Бойум / Steve Boyum) [2002, США, комедия, спорт, DVDRip] DVO

Ответить на тему
Статистика раздачи [Обновить пиров]
Размер:  1.46 GB   |    Зарегистрирован:  1 год 7 месяцев   |    Скачан:  0 раз

Полного источника не было: Никогда

 
   
 
 
 
Автор Сообщение

torrentc.info

Создавать темы 14-Фев-2017 19:18

[Цитировать]

Удар по воротам 2: Разбивая лед / Slap Shot 2: Breaking the Ice
Страна: США
Жанр: комедия, спорт
Год выхода: 2002
Продолжительность: 01:36:34
Перевод: Профессиональный (двухголосый закадровый)
Cубтитры: нет

Режиссер: Стив Бойум / Steve Boyum
В ролях: Стивен Болдуин, Джессика Стин, Гэри Бьюзи, Дэвид Хеммингс, Дэвид Пэйткау, Каллум Кит Ренни, Джонатан Скарф, Стив Карлсон, Дэвид Хэнсон, Джефф Карлсон
Описание: Шон Линден — многострадальный капитан и тренер "Вождей Чарлзтауна". "Вожди" — команда, от славы которой остались одни смутные воспоминания. И вот теперь новый владелец команды и миллионер разработал новый план игры: он решил превратить вождей в потешную команду вечных неудачников, входящую в специально созданную на потребу зрителей хоккейную лигу! И вдобавок к этому оскорблению, новый владелец сделал нечто еще более ужасное — навязал ей нового тренера — женщину! И тогда пришло время совершить чудо — доказать всему миру, что они настоящие мужчины и не утратили свою страсть к хоккею, не разучились играть и побеждать! Сделать это могут только Шон и его команда.
Качество видео: [url=viewtopic.php?t=609524]DVDRip[/url]
Формат файла: AVI
Видео: 704x384 (1.83:1), 25 fps, XviD build 73 ~1955 kbps avg, 0.29 bit/pixel
Аудио: 48 kHz, AC3 Dolby Digital, 2/0 (L,R) ch, ~192 kbps

Источник: Torrentc.org

[url=viewtopic.php?t=623725]http://Torrentc.org/forum/viewtopic.php?t=623725[/url]

MediaInfo

General
Complete name : H:\Slap.Shot.2_Breaking.the.Ice.2002.DVDRip_[1.46]_[teko].avi
Format : AVI
Format/Info : Audio Video Interleave
File size : 1.46 GiB
Duration : 1h 36mn
Overall bit rate : 2 158 Kbps
Writing application : VirtualDubMod 1.5.10.3 | www.virtualdub-fr.org || (build 2550/release)
Writing library : VirtualDubMod build 2550/release
Video
ID : 0
Format : MPEG-4 Visual
Format profile : Advanced Simple@L5
Format settings, BVOP : 2
Format settings, QPel : No
Format settings, GMC : No warppoints
Format settings, Matrix : Custom
Codec ID : XVID
Codec ID/Hint : XviD
Duration : 1h 36mn
Bit rate : 1 956 Kbps
Width : 704 pixels
Height : 384 pixels
Display aspect ratio : 1.85:1
Frame rate : 25.000 fps
Color space : YUV
Chroma subsampling : 4:2:0
Bit depth : 8 bits
Scan type : Progressive
Compression mode : Lossy
Bits/(Pixel*Frame) : 0.289
Stream size : 1.32 GiB (91%)
Writing library : XviD 73
Audio
ID : 1
Format : AC-3
Format/Info : Audio Coding 3
Format profile : Dolby Digital
Mode extension : CM (complete main)
Format settings, Endianness : Big
Codec ID : 2000
Duration : 1h 36mn
Bit rate mode : Constant
Bit rate : 192 Kbps
Channel(s) : 2 channels
Channel positions : Front: L R
Sampling rate : 48.0 KHz
Frame rate : 31.250 fps (1536 spf)
Compression mode : Lossy
Stream size : 133 MiB (9%)
Alignment : Split accross interleaves
Interleave, duration : 40 ms (1.00 video frame)
Interleave, preload duratio : 500 ms

Скриншоты

Релиз группы: :
[url=viewtopic.php?t=1677970] [/url]
--


[torrentc.info]_torrent-5340578.torrent
Торрент: Зарегистрирован ·  [ 2017-02-14 19:18 ] ·  413862ec0d872b9496defc821ec9a892c61ac008

15 KB

Статус: проверено
Скачан: 0 раз
Размер: 1.46 GB
Оценка: 
(Голосов: 0)
Сказали спасибо: 0  Спасибо
Похожие темы
[Профиль]    [ЛС]
Показать сообщения:    
Ответить на тему

Текущее время: Сегодня 13:41

Часовой пояс: GMT + 7



Вы не можете начинать темы
Вы не можете отвечать на сообщения
Вы не можете редактировать свои сообщения
Вы не можете удалять свои сообщения
Вы не можете голосовать в опросах
Вы не можете прикреплять файлы к сообщениям
Вы можете скачивать файлы