Делай или сдохни / Ride or Die (Крэйг Росс мл. / Craig Ross Jr.) [2003, США, Боевик, Приключения, VHSRip] [Fullscreen] MVO (Видеосервис)

Ответить на тему
Статистика раздачи [Обновить пиров]
Размер:  1.37 GB   |    Зарегистрирован:  1 год 9 месяцев   |    Скачан:  0 раз

Полного источника не было: Никогда

 
   
 
 
 
Автор Сообщение

torrentc.info

Создавать темы 14-Фев-2017 19:18

[Цитировать]

Делай или сдохни / Ride or Die
[Full Screen]
Страна: США
Жанр: Боевик, Приключения
Год выхода: 2003
Продолжительность: 01:24:17
Перевод: Профессиональный (многоголосый закадровый) Видеосервис
Cубтитры: нет
Режиссер: Крэйг Росс мл. / Craig Ross Jr.
В ролях: Дуэйн Мартин, Вивика Э. Фокс, Миган Гуд, Майкл Талиферро, Стики Фингаз
Описание: Вся жизнь - война за место под солнцем, и шоу-бизнес - ее передовая, в этом лишний раз убедился частный сыщик Конрад "Ред" МакРей, когда ему пришлось заняться делом о странном самоубийстве звезды рэпа. Проницательный и ловкий детектив сразу почуял нежный аромат "липы", источаемый этой темной историей. Прямых улик нет, но косвенные признаки того, что человек отправился на тот свет не без посторонней помощи. Цепкий Ред не из тех, кого можно обвести вокруг пальца: единожды взяв след, он обязательно дойдет по нему до конца. И плевать. Насколько крут тот, кто его оставил. Но на этот раз, похоже, он потревожил слишком крупную рыбку...
Держитесь крепче: этот спуск на американских горках обещает быть особенно захватывающим дух!
Доп. информация: Оцифровка лицензионной VHS (личный архив) и получение VHSRip alenavova
Эксклюзив для Torrentc.org. При размещении данного релиза на других сайтах ссылка на автора alenavova обязательна.

Релиз группы:
Сэмпл: https://yadi.sk/i/DHj_6ii3ip7oM
Качество видео: VHSRip
Формат файла: AVI
Видео: 704x528 (1.33:1), 25 fps, XviD build 50 ~2120 kbps avg, 0.23 bit/pixel
Аудио: 48 kHz, AC3 Dolby Digital, 2/0 (L,R) ch, ~192 kbps

MediaInfo

Делай или сдохни - Ride or Die (by alenavova).avi
Format : AVI
Format/Info : Audio Video Interleave
File size : 1.37 GiB
Duration : 1h 24mn
Overall bit rate : 2 322 Kbps
Movie name : Делай или сдохни - Ride or Die (by alenavova)
Director : by alenavova
Writing application : VirtualDubMod 1.5.10.3 | www.virtualdub-fr.org || (build 2550/release)
Copyright : Edich2
Comment : Torrentc.org
Video
ID : 0
Format : MPEG-4 Visual
Format profile : Advanced Simple@L5
Format settings, BVOP : 1
Format settings, QPel : No
Format settings, GMC : No warppoints
Format settings, Matrix : Default (MPEG)
Codec ID : XVID
Codec ID/Hint : XviD
Duration : 1h 24mn
Bit rate : 2 121 Kbps
Width : 704 pixels
Height : 528 pixels
Display aspect ratio : 4:3
Frame rate : 25.000 fps
Color space : YUV
Chroma subsampling : 4:2:0
Bit depth : 8 bits
Scan type : Progressive
Compression mode : Lossy
Bits/(Pixel*Frame) : 0.228
Stream size : 1.25 GiB (91%)
Writing library : XviD 1.2.1 (UTC 2008-12-04)
Audio
ID : 1
Format : AC-3
Format/Info : Audio Coding 3
Mode extension : CM (complete main)
Format settings, Endianness : Big
Codec ID : 2000
Duration : 1h 24mn
Bit rate mode : Constant
Bit rate : 192 Kbps
Channel(s) : 2 channels
Channel positions : Front: L R
Sampling rate : 48.0 KHz
Bit depth : 16 bits
Compression mode : Lossy
Stream size : 116 MiB (8%)
Alignment : Split accross interleaves
Interleave, duration : 40 ms (1.00 video frame)
Interleave, preload duration : 500 ms

Скриншоты






[torrentc.info]_torrent-5071461.torrent
Торрент: Зарегистрирован ·  [ 2017-02-14 19:18 ] ·  5795a1f4724a37cec0ade5b174ce6ef3fb330233

14 KB

Статус: проверено
Скачан: 0 раз
Размер: 1.37 GB
Оценка: 
(Голосов: 0)
Сказали спасибо: 0  Спасибо
Похожие темы
[Профиль]    [ЛС]
Показать сообщения:    
Ответить на тему

Текущее время: Сегодня 22:35

Часовой пояс: GMT + 7



Вы не можете начинать темы
Вы не можете отвечать на сообщения
Вы не можете редактировать свои сообщения
Вы не можете удалять свои сообщения
Вы не можете голосовать в опросах
Вы не можете прикреплять файлы к сообщениям
Вы можете скачивать файлы